Видео


Сообщение

Видео Юлия Коченкова, Дина Краснова | Как стать бухгалтером-профессионалом за 24 часа. От чайника до начальника (2013) [PCRec]

Сообщение Tutorial » 30 ноя 2013, 07:11

Юлия Коченкова, Дина Краснова | Как стать бухгалтером-профессионалом за 24 часа. От чайника до начальника (2013) [PCRec]

Автор (режиссер): Юлия Коченкова, Дина Краснова
Название: Как стать бухгалтером-профессионалом за 24 часа. От чайника до начальника
Год выпуска: 2013
Жанр: Обучающее видео
Продолжительность: 04:04:11
Качество видео: PCRec
Видеокодек: AVC
Битрейт видео: ~15fps, 67 - 128kbps
Размер кадра: 936x702, 972x570
Аудиокодек: AAC
Битрейт аудио: 44100Hz stereo 53kbps
Доп. материалы: Имеются

Описание:
Это новый уникальный курс, ничего похожего вы не сможете найти в интернете. В чем же его особенность? Это курс «два в одном», который сочетает теорию бухгалтерского учета с практическим его применением в программе 1С: Бухгалтерия. Т.е. благодаря курсу вы сразу научитесь именно практической работе, не ограничиваясь теоретическими рассуждениями. С другой стороны – изучение теории делает для вас понятной работу программы.

В курсе – только самая важная информация, без воды и излишних подробностей. Это позволит сэкономить ваше время и не засорит мозг. Никаких нудных лекций! В курсе используются современные способы обучения – обучающие видео в формате презентаций, схемы, графики, примеры из практики, решение реальной ситуационной задачи, интеллект-карты. Вы сразу сможете воспользоваться в своей реальной работе готовыми проводками, шаблонами операций, образцами заполнения бухгалтерских документов.

Видеокурс записан максимально простым языком, поскольку чтение законодательных актов оставляет после себя лишь головную боль и резь в глазах, а не стройную систему знаний. В любом деле важна именно система, создав которую можно гораздо легче справляться с повседневными делами, вы согласны?
Содержание:
• Теория бухгалтерского учета / Начало работы с программой
• Основные средства
• Нематериальные активы
• Материалы
• Денежные средства
• Расчеты по заработной плате
• Страховые взносы
• Производство
• Продажа продукции
• Финансовые результаты

Бонусы:
• Лекционные материалы по курсу «Как стать бухгалтером-профессионалом за 24 часа: от чайника до начальника»
• Рабочая тетрадь со сквозной задачей по курсу
• Брошюра «Бухгалтерские документы с образцами заполнения всех документов, которые встретятся вам в видеокурсе
• Сборник нормативно-правовых актов, ссылки на которые вам встретятся в курсе.
• Интеллект-карты по работе в программе 1С: Бухгалтерия.
Общее
Полное имя : D:\Андрей\Как стать бухгалтером-профессионалом за 24 часа VIDEO
Формат : MPEG-4
Профиль формата : Base Media / Version 2
Идентификатор кодека : mp42
Размер файла : 6,28 Мбайт
Общий поток : 123 Кбит/сек
Дата кодирования : UTC 2012-08-28 15:32:17
Дата пометки : UTC 2012-08-28 15:32:17

Видео
Идентификатор : 1
Формат : AVC
Формат/Информация : Advanced Video Codec
Профиль формата :
Параметр CABAC формата : Да
Параметр ReFrames формата : 4 кадра
Идентификатор кодека : avc1
Идентификатор кодека/Информация : Advanced Video Coding
Вид битрейта : Переменный
Битрейт : 67,3 Кбит/сек
Ширина : 936 пикселей
Высота : 702 пикселя
Соотношение сторон : 4:3
Режим частоты кадров : Постоянный
Частота кадров : 15,000 кадров/сек
Цветовое пространство : YUV
Субдискретизация насыщенности : 4:2:0
Битовая глубина : 8 бит
Тип развёртки : Прогрессивная
Бит/(Пиксели*Кадры) : 0.007
Размер потока : 3,44 Мбайт (55%)
Размер потока оригинала : 3,44 Мбайт (55%)
Язык : English
Дата кодирования : UTC 2012-08-28 15:32:17
Дата пометки : UTC 2012-08-28 15:32:17
mdhd_Duration : 429367
Основные цвета : BT.709
Характеристики трансфера : BT.709
Коэффициенты матрицы : BT.709

Аудио
Идентификатор : 2
Формат : AAC
Формат/Информация : Advanced Audio Codec
Профиль формата : LC
Идентификатор кодека : 40
Вид битрейта : Постоянный
Битрейт : 53 Кбит/сек
Каналы : 2 канала
Расположение каналов : Front: L R
Частота : 44,1 КГц
Метод сжатия : С потерями
Размер потока : 2,69 Мбайт (43%)
Размер потока оригинала : 2,69 Мбайт (43%)
Язык : English
Дата кодирования : UTC 2012-08-28 15:32:17
Дата пометки : UTC 2012-08-28 15:32:17
mdhd_Duration : 429378
Общее
Полное имя : D:\Андрей\Как стать бухгалтером-профессионалом за 24 часа VIDEO
Формат : MPEG-4
Профиль формата : Base Media / Version 2
Идентификатор кодека : mp42
Размер файла : 18,0 Мбайт
Общий поток : 183 Кбит/сек
Дата кодирования : UTC 2012-10-10 10:13:53
Дата пометки : UTC 2012-10-10 10:13:53

Видео
Идентификатор : 1
Формат : AVC
Формат/Информация : Advanced Video Codec
Профиль формата :
Параметр CABAC формата : Да
Параметр ReFrames формата : 4 кадра
Идентификатор кодека : avc1
Идентификатор кодека/Информация : Advanced Video Coding
Вид битрейта : Переменный
Битрейт : 128 Кбит/сек
Ширина : 972 пикселя
Высота : 570 пикселей
Соотношение сторон : 1,705
Режим частоты кадров : Постоянный
Частота кадров : 15,000 кадров/сек
Цветовое пространство : YUV
Субдискретизация насыщенности : 4:2:0
Битовая глубина : 8 бит
Тип развёртки : Прогрессивная
Бит/(Пиксели*Кадры) : 0.015
Размер потока : 12,6 Мбайт (70%)
Размер потока оригинала : 12,6 Мбайт (70%)
Язык : English
Дата кодирования : UTC 2012-10-10 10:13:53
Дата пометки : UTC 2012-10-10 10:13:53
mdhd_Duration : 821375
Основные цвета : BT.709
Характеристики трансфера : BT.709
Коэффициенты матрицы : BT.709

Аудио
Идентификатор : 2
Формат : AAC
Формат/Информация : Advanced Audio Codec
Профиль формата : LC
Идентификатор кодека : 40
Вид битрейта : Постоянный
Битрейт : 53,1 Кбит/сек
Каналы : 2 канала
Расположение каналов : Front: L R
Частота : 44,1 КГц
Метод сжатия : С потерями
Размер потока : 5,20 Мбайт (29%)
Размер потока оригинала : 5,20 Мбайт (29%)
Язык : English
Дата кодирования : UTC 2012-10-10 10:13:53
Дата пометки : UTC 2012-10-10 10:13:53
mdhd_Duration : 821130
Скриншоты:



Время раздачи: 24/7 (круглосуточно)

Постеры

Соцсети

 

Вернуться в Бухучет, Налоги



Кто сейчас на конференции

Сейчас эту тему просматривают: CCBot и гости: 0