Видео


Сообщение

Видео [Pluralsight] Shell Scripting with Bash [2013, ENG]

Сообщение Tutorial » 06 дек 2013, 22:56

Shell Scripting with Bash

Год выпуска: 2013
Производитель: Pluralsight
Сайт производителя: http://pluralsight.com/
Автор: Reindert-Jan Ekker
Продолжительность: 4h 33m
Тип раздаваемого материала: Видеоклипы
Язык: Английский
Описание: This course teaches you how to write shell scripts for automating tasks on UNIX systems.

Этот курс научит вас, как писать скрипты для автоматизации задач в системах UNIX.
Содержание
│ bash-shell-scripting.zip

├───01. Introduction
│ 01. Introduction.wmv
│ 02. Why Shell Scripting .wmv
│ 03. What to Expect From This Course .wmv
│ 04. Prerequisites.wmv

├───02. A First Look At Shell Scripts
│ 01. Introduction.wmv
│ 02. Creating A Shell Script.wmv
│ 03. Demo A Note-Taking Script.wmv
│ 04. Calling The Script.wmv
│ 05. The Shebang.wmv
│ 06. Naming Your Script.wmv
│ 07. Demo The type Command.wmv
│ 08. Summary.wmv

├───03. Variables
│ 01. Introduction.wmv
│ 02. Demo Variables.wmv
│ 03. Variable Basics.wmv
│ 04. Using Variables in A Script.wmv
│ 05. Using Variables Good Habits.wmv
│ 06. Reading Input.wmv
│ 07. Debugging your Script.wmv
│ 08. Summary.wmv

├───04. If, Then, Else
│ 01. Introduction.wmv
│ 02. Demo The If Statement.wmv
│ 03. The If Statement.wmv
│ 04. Return codes.wmv
│ 05. The Conditional Expression.wmv
│ 06. Demo The Conditional Expression.wmv
│ 07. The Conditional Expression 2.wmv
│ 08. Arithmetic Tests.wmv
│ 09. Demo Arithmetic Tests.wmv
│ 10. The If Statement Revisited.wmv
│ 11. And, Or, Not.wmv
│ 12. Summary.wmv

├───05. Input and Output
│ 01. Introduction.wmv
│ 02. Output echo and printf.wmv
│ 03. Input read revisited.wmv
│ 04. Standard Streams and Redirection.wmv
│ 05. Demo Redirection.wmv
│ 06. Summary.wmv

├───06. Control Flow
│ 01. Introduction.wmv
│ 02. While and Until.wmv
│ 03. The Classic For Statement.wmv
│ 04. The C-Style For Statement.wmv
│ 05. Break and Continue.wmv
│ 06. The Case Statement.wmv
│ 07. && and .wmv
│ 08. Summary.wmv

├───07. Variables 2
│ 01. Introduction.wmv
│ 02. Integer Variables.wmv
│ 03. Arithmetic Expressions.wmv
│ 04. Arithmetic Expressions 2.wmv
│ 05. Read-only Variables.wmv
│ 06. Exporting Variables.wmv
│ 07. Arrays.wmv
│ 08. Summary.wmv

├───08. Handling Script Parameters
│ 01. Introduction.wmv
│ 02. Special Variables.wmv
│ 03. Shift.wmv
│ 04. Getopts.wmv
│ 05. Getopts Handling Errors.wmv
│ 06. Summary.wmv

├───09. Shell Functions
│ 01. Introduction.wmv
│ 02. Shell Functions.wmv
│ 03. Shell Functions 2.wmv
│ 04. Functions Demo.wmv
│ 05. Some Miscellaneous Remarks.wmv
│ 06. Summary.wmv

├───10. Fun with Strings
│ 01. Introduction.wmv
│ 02. Removing Part Of A String.wmv
│ 03. Search and Replace.wmv
│ 04. Setting A Default Value.wmv
│ 05. Conditional Expression Patterns.wmv
│ 06. Regular Expressions in The Conditional Expression.wmv
│ 07. End of Options.wmv
│ 08. Summary.wmv

└───11. Many Ways to Run Your Script
01. Introduction.wmv
02. Running your Code.wmv
03. Nohup and The Background.wmv
04. Exec.wmv
05. At and Cron.wmv
06. Set and Shopt.wmv
07. Summary.wmv
Файлы примеров: присутствуют
Формат видео: WMV
audio\video
General
Complete name : C:\02. Creating A Shell Script.wmv
Format : Windows Media
File size : 9.07 MiB
Duration : 5mn 55s
Overall bit rate mode : Variable
Overall bit rate : 214 Kbps
Maximum Overall bit rate : 413 Kbps
Encoded date : UTC 2013-10-04 16:16:36.843

Video
ID : 2
Format : VC-1
Format profile : MP@HL
Codec ID : WMV3
Codec ID/Info : Windows Media Video 9
Codec ID/Hint : WMV3
Description of the codec : Windows Media Video 9
Duration : 5mn 55s
Bit rate mode : Variable
Bit rate : 33.4 Kbps
Width : 1 024 pixels
Height : 768 pixels
Display aspect ratio : 4:3
Frame rate : 15.000 fps
Color space : YUV
Chroma subsampling : 4:2:0
Bit depth : 8 bits
Scan type : Progressive
Compression mode : Lossy
Bits/(Pixel*Frame) : 0.003
Stream size : 1.41 MiB (16%)
Language : English (US)

Audio
ID : 1
Format : WMA
Format version : Version 2
Codec ID : 161
Codec ID/Info : Windows Media Audio
Description of the codec : Windows Media Audio 9.2 - 128 kbps, 44 kHz, stereo (A/V) 1-pass CBR
Duration : 5mn 55s
Bit rate mode : Constant
Bit rate : 128 Kbps
Channel(s) : 2 channels
Sampling rate : 44.1 KHz
Bit depth : 16 bits
Stream size : 5.42 MiB (60%)
Language : English (US)
Скриншоты

Постеры

Соцсети

 

Статистика

Автор: Tutorial
Добавлен: 06 дек 2013, 22:56
Размер: 407.1 МБ
Размер: 426 875 301 байт
Сидеров: 1
Личеров: 2
Скачали: 5
Здоровье: 50%
Раздающих: 20%
Скорость скачивания: 0 байт/сек
Скорость раздачи: 0 байт/сек
Последний сидер: 6 дней 4 часа 32 минуты 34 секунды назад
Последний личер: 6 дней 4 часа 32 минуты 34 секунды назад
Приватный: Нет (DHT включён)
Linux, Unix Скачать торрент
Скачать торрент
[ Размер 23.34 КБ / Просмотров 7 ]

Поделиться


Вернуться в Linux, Unix