Видео


Сообщение

Видео [ООО Яндекс] Курс информационных технологий. Третий набор. Яндекс КИТ. [2012, RUS]

Сообщение Tutorial » 06 дек 2013, 22:56

Курс информационных технологий. Третий набор. Яндекс КИТ.

Год выпуска: 2012
Производитель: ООО Яндекс
Сайт производителя: http://yandex.ru
Автор: Виктор Ашик
Продолжительность: > 16 часов
Тип раздаваемого материала: Лекции
Язык: Русский
Описание: 18 октября 2012 года стартовали третьи Курсы информационных технологий Яндекса.

Теоретический курс состоял из семи лекций, которые проходили в московском офисе Яндекса. Для тех, кто не попал в число слушателей, и просто для всех желающих были организованы трансляции лекций с возможностью задавать вопросы в чате.

42 из 50 слушателей успешно сдали теоретический экзамен. 12 человек, показавшие наилучшие результаты, были приглашены на практику в отделе системного администрирования Яндекса.

Яндекс КИТ. Первый набор

Яндекс КИТ. Второй набор
Содержание
1. Профессии в мире информационных технологий
Автор:Виктор Ашик
Продолжительность:97:17

Разбор вступительных заданий:
- что такое load average;
- программа на С с массивом максимально возможного размера KIT_MAX и ошибками;
- изменяемые и неизменяемые идентификаторы компьютера, веб-серверы со множеством процессов и
- потоков под Linux и Windows;
- уже запущенный процесс: трассировка, отладка, профилирование, дамп, SystemTap.

Профессии по категориям:
- архитектура ПО и сетей;
- администрирование сетей и серверов;
- информационная безопасность;
- корпоративное ПО: внедрение и консультирование;
- дизайн интерфейсов;
- обслуживание и поддержка;
- базы данных;
- веб-разработка и разработка ПО;
- системный анализ;
- управление проектами.
2. Инструментарий системного инженера
Автор:Виктор Ашик
Продолжительность:110:23

Краткий обзор инструментальных средств системного администратора
- коммуникации: браузер, электронная почта, Jabber;
- документирование: wiki, карты памяти, управление конфигурациями;
- работа с оборудованием: антистатический браслет, магнитные отвертки, консольные порты;
- командная строка: терминал, справка, оболочка, обработка текста;
- протоколы доступа: VPN, ssh -X, VNC, NX, x2go, x11vnc;
- текстовый редактор: vi, emacs, nano;
- языки программирования: sh, perl, python, C/C++;
- отладка и профилирование: gdb, valgrind, perf, oprofile;
- менеджеры пакетов: rpm, dpkg и др.;
- анализаторы пакетов: tcpdump, wireshark, airodump-ng;
- резервное копирование: tar, rsync, amanda, bacula.
3. Архитектура операционной системы
Автор:Виктор Ашик
Продолжительность:120:09

Поговорим про архитектуру операционной системы на примере Linux
Загрузка Linux происходит в следующем порядке:
загрузчик (обычно grub2);
ядро + образ initramfs;
монтирование корневой файловой системы;
init (upstart, systemd) + сценарии.
Операционная система предоставляет интерфейс системных вызовов для прикладных программ. Этот интерфейс позволяет оперировать абстракциями «файл», «процесс», «сокет», не привязываясь к деталям их реализации.
4. Безопасность информационных систем
Автор:Антон Карпов
Продолжительность:181:58

Лекция представляет собой вводную в практический мир информационной безопасности. В ней мы последовательно расскажем про наиболее типовые (как ретроспективные, так и актуальные до сих пор) уязвимости на канальном, сетевом, транспортном и прикладном уровнях, продемонстрируем, как злоумышленники эксплуатируют эти уязвимости и как от этого можно защищаться. В качестве бонуса в конце лекции мы поговорим об историческом развитии хакинга и истории безопасности компьютерных систем с 70-х годов до наших дней.
5. Организация хранения данных
Автор:Антон Кортунов
Продолжительность:127:56

Хранить миллиарды объектов, просто положив их в базу данных, не получится. Для этого необходимо применять другой класс решений, которые обычно называют Big Data Storage. Необходимо учитывать не только общий объём, но и количество объектов, пропускную способность сети, скорость чтения и скорость доступа к данным на дисках. Отдельно необходимо заботиться о репликации и о доступности данных при сбоях. Для каждого конкретного случая обычно необходимо рассматривать все существующие варианты и искать компромисс между производительностью, удобством работы и доступностью при потере отдельных узлов или целых реплик. В докладе рассматриваются все эти аспекты на примере гипотетического переезда Instagram из Amazon S3 в собственное хранилище.
6. Виртуализация в Linux
Автор:Рашит Азизбаев
Продолжительность:105:52

Виртуализация в современных информационных системах используется повсеместно. Применяя ее, можно упростить решение целого класса задач, но для этого необходимо понимать достоинства, недостатки и ограничения разных технологий виртуализации. В докладе мы расскажем о существующих типах виртуализации, их особенностях, а также инструментах управления виртуальными машинами.
7. Компьютерные сети
Автор:Владимир Иванов
Продолжительность:123:40

Обмен данными между двумя компьютерами – не столь простая задача, как кажется на первый взгляд. В ходе лекции мы проследим эволюцию систем связи, выясним, как работают сети в пределах одной географически локализованной области, как далеко она может простираться, что делать, если потребуется объединять далеко отстоящие сети, и как этого добиться.
8. Компьютерные сети, продолжение
Автор:Владимир Иванов
Продолжительность:117:58

На предыдущей лекции мы обсудили, как можно объединить несколько территориально распределенных сетей в одну и обеспечить связанность между ними. В ходе этой лекции мы расскажем, какие механизмы позволяют масштабировать сети до размера интернета, рассмотрим протоколы динамической маршрутизации и возможность их применения в современной сети.
MediaInfo
kit3web1_V.Ashik.mp4
General
Complete name : C:\YandexKit3\kit3web1_V.Ashik.mp4
Format : MPEG-4
Format profile : Base Media / Version 2
Codec ID : mp42
File size : 1.44 GiB
Duration : 1h 37mn
Overall bit rate mode : Variable
Overall bit rate : 2 114 Kbps
Encoded date : UTC 2012-11-06 07:16:31
Tagged date : UTC 2012-11-06 07:30:50
Writing application : HandBrake 0.9.8 2012071800

Video
ID : 1
Format : AVC
Format/Info : Advanced Video Codec
Format profile : Main@L3.1
Format settings, CABAC : Yes
Format settings, ReFrames : 4 frames
Codec ID : avc1
Codec ID/Info : Advanced Video Coding
Duration : 1h 37mn
Bit rate mode : Variable
Bit rate : 2 000 Kbps
Width : 1 278 pixels
Height : 422 pixels
Display aspect ratio : 3.028
Frame rate mode : Constant
Frame rate : 25.000 fps
Color space : YUV
Chroma subsampling : 4:2:0
Bit depth : 8 bits
Scan type : Progressive
Bits/(Pixel*Frame) : 0.148
Stream size : 1.36 GiB (95%)
Writing library : x264 core 120
Encoding settings : cabac=1 / ref=1 / deblock=1:0:0 / analyse=0x1:0x111 / me=hex / subme=2 / psy=1 / psy_rd=1.00:0.00 / mixed_ref=0 / me_range=16 / chroma_me=1 / trellis=0 / 8x8dct=0 / cqm=0 / deadzone=21,11 / fast_pskip=1 / chroma_qp_offset=0 / threads=12 / sliced_threads=0 / nr=0 / decimate=1 / interlaced=0 / bluray_compat=0 / constrained_intra=0 / bframes=3 / b_pyramid=2 / b_adapt=1 / b_bias=0 / direct=1 / weightb=1 / open_gop=0 / weightp=1 / keyint=250 / keyint_min=25 / scenecut=40 / intra_refresh=0 / rc_lookahead=10 / rc=abr / mbtree=1 / bitrate=2000 / ratetol=1.0 / qcomp=0.60 / qpmin=3 / qpmax=69 / qpstep=4 / ip_ratio=1.40 / aq=1:1.00
Encoded date : UTC 2012-11-06 07:16:31
Tagged date : UTC 2012-11-06 07:30:50
Color primaries : BT.709
Transfer characteristics : BT.709
Matrix coefficients : BT.709

Audio
ID : 2
Format : AAC
Format/Info : Advanced Audio Codec
Format profile : LC
Codec ID : 40
Duration : 1h 37mn
Bit rate mode : Variable
Bit rate : 111 Kbps
Maximum bit rate : 196 Kbps
Channel(s) : 2 channels
Channel positions : Front: L R
Sampling rate : 48.0 KHz
Compression mode : Lossy
Delay relative to video : 80ms
Stream size : 77.0 MiB (5%)
Encoded date : UTC 2012-11-06 07:16:31
Tagged date : UTC 2012-11-06 07:30:49
kit3web2_V.Ashik.mp4
General
Complete name : C:\YandexKit3\kit3web2_V.Ashik.mp4
Format : MPEG-4
Format profile : Base Media / Version 2
Codec ID : mp42
File size : 1.90 GiB
Duration : 1h 50mn
Overall bit rate mode : Variable
Overall bit rate : 2 458 Kbps
Encoded date : UTC 2012-11-06 07:09:55
Tagged date : UTC 2012-11-06 07:34:10
Writing application : HandBrake 0.9.5 2011010300

Video
ID : 1
Format : AVC
Format/Info : Advanced Video Codec
Format profile : Main@L3.1
Format settings, CABAC : Yes
Format settings, ReFrames : 4 frames
Codec ID : avc1
Codec ID/Info : Advanced Video Coding
Duration : 1h 50mn
Bit rate mode : Variable
Bit rate : 2 292 Kbps
Width : 1 280 pixels
Height : 420 pixels
Display aspect ratio : 3.048
Frame rate mode : Constant
Frame rate : 25.000 fps
Color space : YUV
Chroma subsampling : 4:2:0
Bit depth : 8 bits
Scan type : Progressive
Bits/(Pixel*Frame) : 0.171
Stream size : 1.77 GiB (93%)
Writing library : x264 core 112
Encoding settings : cabac=1 / ref=2 / deblock=1:0:0 / analyse=0x1:0x111 / me=hex / subme=6 / psy=1 / psy_rd=1.00:0.00 / mixed_ref=0 / me_range=16 / chroma_me=1 / trellis=0 / 8x8dct=0 / cqm=0 / deadzone=21,11 / fast_pskip=1 / chroma_qp_offset=-2 / threads=12 / sliced_threads=0 / nr=0 / decimate=1 / interlaced=0 / constrained_intra=0 / bframes=2 / b_pyramid=2 / b_adapt=1 / b_bias=0 / direct=1 / weightb=0 / open_gop=0 / weightp=2 / keyint=250 / keyint_min=25 / scenecut=40 / intra_refresh=0 / rc_lookahead=40 / rc=abr / mbtree=1 / bitrate=2292 / ratetol=1.0 / qcomp=0.60 / qpmin=3 / qpmax=51 / qpstep=4 / ip_ratio=1.40 / aq=1:1.00
Encoded date : UTC 2012-11-06 07:09:55
Tagged date : UTC 2012-11-06 07:34:10
Color primaries : BT.709
Transfer characteristics : BT.709
Matrix coefficients : BT.709

Audio
ID : 2
Format : AAC
Format/Info : Advanced Audio Codec
Format profile : LC
Codec ID : 40
Duration : 1h 50mn
Bit rate mode : Variable
Bit rate : 160 Kbps
Maximum bit rate : 265 Kbps
Channel(s) : 2 channels
Channel positions : Front: L R
Sampling rate : 48.0 KHz
Compression mode : Lossy
Delay relative to video : 80ms
Stream size : 126 MiB (7%)
Encoded date : UTC 2012-11-06 07:09:55
Tagged date : UTC 2012-11-06 07:34:10
kit3peredelkaweb3_V.Ashik.mp4
General
Complete name : C:\YandexKit3\kit3peredelkaweb3_V.Ashik.mp4
Format : MPEG-4
Format profile : Base Media / Version 2
Codec ID : mp42
File size : 1.90 GiB
Duration : 2h 0mn
Overall bit rate mode : Variable
Overall bit rate : 2 266 Kbps
Encoded date : UTC 2012-11-19 09:08:36
Tagged date : UTC 2012-11-19 09:22:36
Writing application : HandBrake 0.9.8 2012071800

Video
ID : 1
Format : AVC
Format/Info : Advanced Video Codec
Format profile : Main@L3.1
Format settings, CABAC : Yes
Format settings, ReFrames : 4 frames
Codec ID : avc1
Codec ID/Info : Advanced Video Coding
Duration : 2h 0mn
Bit rate mode : Variable
Bit rate : 2 100 Kbps
Width : 1 280 pixels
Height : 416 pixels
Display aspect ratio : 3.077
Frame rate mode : Constant
Frame rate : 25.000 fps
Color space : YUV
Chroma subsampling : 4:2:0
Bit depth : 8 bits
Scan type : Progressive
Bits/(Pixel*Frame) : 0.158
Stream size : 1.76 GiB (93%)
Writing library : x264 core 120
Encoding settings : cabac=1 / ref=1 / deblock=1:0:0 / analyse=0x1:0x111 / me=hex / subme=2 / psy=1 / psy_rd=1.00:0.00 / mixed_ref=0 / me_range=16 / chroma_me=1 / trellis=0 / 8x8dct=0 / cqm=0 / deadzone=21,11 / fast_pskip=1 / chroma_qp_offset=0 / threads=12 / sliced_threads=0 / nr=0 / decimate=1 / interlaced=0 / bluray_compat=0 / constrained_intra=0 / bframes=3 / b_pyramid=2 / b_adapt=1 / b_bias=0 / direct=1 / weightb=1 / open_gop=0 / weightp=1 / keyint=250 / keyint_min=25 / scenecut=40 / intra_refresh=0 / rc_lookahead=10 / rc=abr / mbtree=1 / bitrate=2100 / ratetol=1.0 / qcomp=0.60 / qpmin=3 / qpmax=69 / qpstep=4 / ip_ratio=1.40 / aq=1:1.00
Encoded date : UTC 2012-11-19 09:08:36
Tagged date : UTC 2012-11-19 09:22:36
Color primaries : BT.709
Transfer characteristics : BT.709
Matrix coefficients : BT.709

Audio
ID : 2
Format : AAC
Format/Info : Advanced Audio Codec
Format profile : LC
Codec ID : 40
Duration : 2h 0mn
Bit rate mode : Variable
Bit rate : 163 Kbps
Maximum bit rate : 209 Kbps
Channel(s) : 2 channels
Channel positions : Front: L R
Sampling rate : 48.0 KHz
Compression mode : Lossy
Delay relative to video : 80ms
Stream size : 140 MiB (7%)
Encoded date : UTC 2012-11-19 09:08:36
Tagged date : UTC 2012-11-19 09:22:36
kit3web4_A.Karpov.mp4
General
Complete name : C:\YandexKit3\kit3web4_A.Karpov.mp4
Format : MPEG-4
Format profile : Base Media / Version 2
Codec ID : mp42
File size : 1.96 GiB
Duration : 3h 1mn
Overall bit rate mode : Variable
Overall bit rate : 1 538 Kbps
Encoded date : UTC 2012-11-07 14:57:49
Tagged date : UTC 2012-11-07 15:36:32
Writing application : HandBrake 0.9.5 2011010300

Video
ID : 1
Format : AVC
Format/Info : Advanced Video Codec
Format profile : Main@L3.1
Format settings, CABAC : Yes
Format settings, ReFrames : 4 frames
Codec ID : avc1
Codec ID/Info : Advanced Video Coding
Duration : 3h 1mn
Bit rate mode : Variable
Bit rate : 1 373 Kbps
Width : 1 280 pixels
Height : 420 pixels
Display aspect ratio : 3.048
Frame rate mode : Constant
Frame rate : 25.000 fps
Color space : YUV
Chroma subsampling : 4:2:0
Bit depth : 8 bits
Scan type : Progressive
Bits/(Pixel*Frame) : 0.102
Stream size : 1.75 GiB (89%)
Writing library : x264 core 112
Encoding settings : cabac=1 / ref=2 / deblock=1:0:0 / analyse=0x1:0x111 / me=hex / subme=6 / psy=1 / psy_rd=1.00:0.00 / mixed_ref=0 / me_range=16 / chroma_me=1 / trellis=0 / 8x8dct=0 / cqm=0 / deadzone=21,11 / fast_pskip=1 / chroma_qp_offset=-2 / threads=12 / sliced_threads=0 / nr=0 / decimate=1 / interlaced=0 / constrained_intra=0 / bframes=2 / b_pyramid=2 / b_adapt=1 / b_bias=0 / direct=1 / weightb=0 / open_gop=0 / weightp=2 / keyint=250 / keyint_min=25 / scenecut=40 / intra_refresh=0 / rc_lookahead=40 / rc=abr / mbtree=1 / bitrate=1373 / ratetol=1.0 / qcomp=0.60 / qpmin=3 / qpmax=51 / qpstep=4 / ip_ratio=1.40 / aq=1:1.00
Encoded date : UTC 2012-11-07 14:57:49
Tagged date : UTC 2012-11-07 15:36:32
Color primaries : BT.709
Transfer characteristics : BT.709
Matrix coefficients : BT.709

Audio
ID : 2
Format : AAC
Format/Info : Advanced Audio Codec
Format profile : LC
Codec ID : 40
Duration : 3h 1mn
Bit rate mode : Variable
Bit rate : 160 Kbps
Maximum bit rate : 235 Kbps
Channel(s) : 2 channels
Channel positions : Front: L R
Sampling rate : 48.0 KHz
Compression mode : Lossy
Delay relative to video : 80ms
Stream size : 208 MiB (10%)
Encoded date : UTC 2012-11-07 14:57:49
Tagged date : UTC 2012-11-07 15:36:32
kit3web5_A.Kortunov.mp4
General
Complete name : C:\YandexKit3\kit3web5_A.Kortunov.mp4
Format : MPEG-4
Format profile : Base Media / Version 2
Codec ID : mp42
File size : 1.94 GiB
Duration : 2h 7mn
Overall bit rate mode : Variable
Overall bit rate : 2 166 Kbps
Encoded date : UTC 2012-11-08 13:46:04
Tagged date : UTC 2012-11-08 14:17:18
Writing application : HandBrake 0.9.8 2012071800

Video
ID : 1
Format : AVC
Format/Info : Advanced Video Codec
Format profile : Main@L3.1
Format settings, CABAC : Yes
Format settings, ReFrames : 4 frames
Codec ID : avc1
Codec ID/Info : Advanced Video Coding
Duration : 2h 7mn
Bit rate mode : Variable
Bit rate : 2 000 Kbps
Width : 1 280 pixels
Height : 720 pixels
Display aspect ratio : 16:9
Frame rate mode : Constant
Frame rate : 25.000 fps
Color space : YUV
Chroma subsampling : 4:2:0
Bit depth : 8 bits
Scan type : Progressive
Bits/(Pixel*Frame) : 0.087
Stream size : 1.79 GiB (92%)
Writing library : x264 core 120
Encoding settings : cabac=1 / ref=1 / deblock=1:0:0 / analyse=0x1:0x111 / me=hex / subme=2 / psy=1 / psy_rd=1.00:0.00 / mixed_ref=0 / me_range=16 / chroma_me=1 / trellis=0 / 8x8dct=0 / cqm=0 / deadzone=21,11 / fast_pskip=1 / chroma_qp_offset=0 / threads=12 / sliced_threads=0 / nr=0 / decimate=1 / interlaced=0 / bluray_compat=0 / constrained_intra=0 / bframes=3 / b_pyramid=2 / b_adapt=1 / b_bias=0 / direct=1 / weightb=1 / open_gop=0 / weightp=1 / keyint=250 / keyint_min=25 / scenecut=40 / intra_refresh=0 / rc_lookahead=10 / rc=abr / mbtree=1 / bitrate=2000 / ratetol=1.0 / qcomp=0.60 / qpmin=3 / qpmax=69 / qpstep=4 / ip_ratio=1.40 / aq=1:1.00
Encoded date : UTC 2012-11-08 13:46:04
Tagged date : UTC 2012-11-08 14:17:18
Color primaries : BT.709
Transfer characteristics : BT.709
Matrix coefficients : BT.709

Audio
ID : 2
Format : AAC
Format/Info : Advanced Audio Codec
Format profile : LC
Codec ID : 40
Duration : 2h 7mn
Bit rate mode : Variable
Bit rate : 164 Kbps
Maximum bit rate : 204 Kbps
Channel(s) : 2 channels
Channel positions : Front: L R
Sampling rate : 48.0 KHz
Compression mode : Lossy
Delay relative to video : 80ms
Stream size : 150 MiB (8%)
Encoded date : UTC 2012-11-08 13:46:04
Tagged date : UTC 2012-11-08 14:17:18
kit3web6_R.Azizbaev.mp4
General
Complete name : C:\YandexKit3\kit3web6_R.Azizbaev.mp4
Format : MPEG-4
Format profile : Base Media / Version 2
Codec ID : mp42
File size : 1.58 GiB
Duration : 1h 45mn
Overall bit rate mode : Variable
Overall bit rate : 2 140 Kbps
Encoded date : UTC 2012-11-09 04:14:02
Tagged date : UTC 2012-11-09 04:29:45
Writing application : HandBrake 0.9.8 2012071800

Video
ID : 1
Format : AVC
Format/Info : Advanced Video Codec
Format profile : Main@L3.1
Format settings, CABAC : Yes
Format settings, ReFrames : 4 frames
Codec ID : avc1
Codec ID/Info : Advanced Video Coding
Duration : 1h 45mn
Bit rate mode : Variable
Bit rate : 2 000 Kbps
Width : 1 280 pixels
Height : 420 pixels
Display aspect ratio : 3.048
Frame rate mode : Constant
Frame rate : 25.000 fps
Color space : YUV
Chroma subsampling : 4:2:0
Bit depth : 8 bits
Scan type : Progressive
Bits/(Pixel*Frame) : 0.149
Stream size : 1.48 GiB (93%)
Writing library : x264 core 120
Encoding settings : cabac=1 / ref=1 / deblock=1:0:0 / analyse=0x1:0x111 / me=hex / subme=2 / psy=1 / psy_rd=1.00:0.00 / mixed_ref=0 / me_range=16 / chroma_me=1 / trellis=0 / 8x8dct=0 / cqm=0 / deadzone=21,11 / fast_pskip=1 / chroma_qp_offset=0 / threads=12 / sliced_threads=0 / nr=0 / decimate=1 / interlaced=0 / bluray_compat=0 / constrained_intra=0 / bframes=3 / b_pyramid=2 / b_adapt=1 / b_bias=0 / direct=1 / weightb=1 / open_gop=0 / weightp=1 / keyint=250 / keyint_min=25 / scenecut=40 / intra_refresh=0 / rc_lookahead=10 / rc=abr / mbtree=1 / bitrate=2000 / ratetol=1.0 / qcomp=0.60 / qpmin=3 / qpmax=69 / qpstep=4 / ip_ratio=1.40 / aq=1:1.00
Encoded date : UTC 2012-11-09 04:14:02
Tagged date : UTC 2012-11-09 04:29:45
Color primaries : BT.709
Transfer characteristics : BT.709
Matrix coefficients : BT.709

Audio
ID : 2
Format : AAC
Format/Info : Advanced Audio Codec
Format profile : LC
Codec ID : 40
Duration : 1h 45mn
Bit rate mode : Variable
Bit rate : 137 Kbps
Maximum bit rate : 194 Kbps
Channel(s) : 2 channels
Channel positions : Front: L R
Sampling rate : 48.0 KHz
Compression mode : Lossy
Delay relative to video : 80ms
Stream size : 104 MiB (6%)
Encoded date : UTC 2012-11-09 04:14:02
Tagged date : UTC 2012-11-09 04:29:45
kit3forweb7_V.Ivanov.mp4
General
Complete name : C:\YandexKit3\kit3forweb7_V.Ivanov.mp4
Format : MPEG-4
Format profile : Base Media / Version 2
Codec ID : mp42
File size : 1.95 GiB
Duration : 2h 3mn
Overall bit rate mode : Variable
Overall bit rate : 2 261 Kbps
Encoded date : UTC 2012-11-16 13:50:08
Tagged date : UTC 2012-11-16 14:04:50
Writing application : HandBrake 0.9.8 2012071800

Video
ID : 1
Format : AVC
Format/Info : Advanced Video Codec
Format profile : Main@L3.1
Format settings, CABAC : Yes
Format settings, ReFrames : 4 frames
Codec ID : avc1
Codec ID/Info : Advanced Video Coding
Duration : 2h 3mn
Bit rate mode : Variable
Bit rate : 2 100 Kbps
Width : 1 280 pixels
Height : 420 pixels
Display aspect ratio : 3.048
Frame rate mode : Constant
Frame rate : 25.000 fps
Color space : YUV
Chroma subsampling : 4:2:0
Bit depth : 8 bits
Scan type : Progressive
Bits/(Pixel*Frame) : 0.156
Stream size : 1.82 GiB (93%)
Writing library : x264 core 120
Encoding settings : cabac=1 / ref=1 / deblock=1:0:0 / analyse=0x1:0x111 / me=hex / subme=2 / psy=1 / psy_rd=1.00:0.00 / mixed_ref=0 / me_range=16 / chroma_me=1 / trellis=0 / 8x8dct=0 / cqm=0 / deadzone=21,11 / fast_pskip=1 / chroma_qp_offset=0 / threads=12 / sliced_threads=0 / nr=0 / decimate=1 / interlaced=0 / bluray_compat=0 / constrained_intra=0 / bframes=3 / b_pyramid=2 / b_adapt=1 / b_bias=0 / direct=1 / weightb=1 / open_gop=0 / weightp=1 / keyint=250 / keyint_min=25 / scenecut=40 / intra_refresh=0 / rc_lookahead=10 / rc=abr / mbtree=1 / bitrate=2100 / ratetol=1.0 / qcomp=0.60 / qpmin=3 / qpmax=69 / qpstep=4 / ip_ratio=1.40 / aq=1:1.00
Encoded date : UTC 2012-11-16 13:50:08
Tagged date : UTC 2012-11-16 14:04:50
Color primaries : BT.709
Transfer characteristics : BT.709
Matrix coefficients : BT.709

Audio
ID : 2
Format : AAC
Format/Info : Advanced Audio Codec
Format profile : LC
Codec ID : 40
Duration : 2h 3mn
Bit rate mode : Variable
Bit rate : 149 Kbps
Maximum bit rate : 194 Kbps
Channel(s) : 2 channels
Channel positions : Front: L R
Sampling rate : 48.0 KHz
Compression mode : Lossy
Delay relative to video : 80ms
Stream size : 132 MiB (7%)
Encoded date : UTC 2012-11-16 13:50:08
Tagged date : UTC 2012-11-16 14:04:50
kit3web8_V.Ivanov.mp4
General
Complete name : C:\YandexKit3\kit3web8_V.Ivanov.mp4
Format : MPEG-4
Format profile : Base Media / Version 2
Codec ID : mp42
File size : 1.77 GiB
Duration : 1h 57mn
Overall bit rate mode : Variable
Overall bit rate : 2 152 Kbps
Encoded date : UTC 2012-11-21 11:38:28
Tagged date : UTC 2012-11-21 11:50:21
Writing application : HandBrake 0.9.8 2012071800

Video
ID : 1
Format : AVC
Format/Info : Advanced Video Codec
Format profile : Main@L3.1
Format settings, CABAC : Yes
Format settings, ReFrames : 4 frames
Codec ID : avc1
Codec ID/Info : Advanced Video Coding
Duration : 1h 57mn
Bit rate mode : Variable
Bit rate : 2 000 Kbps
Width : 1 280 pixels
Height : 418 pixels
Display aspect ratio : 3.062
Frame rate mode : Constant
Frame rate : 25.000 fps
Color space : YUV
Chroma subsampling : 4:2:0
Bit depth : 8 bits
Scan type : Progressive
Bits/(Pixel*Frame) : 0.150
Stream size : 1.65 GiB (93%)
Writing library : x264 core 120
Encoding settings : cabac=1 / ref=1 / deblock=1:0:0 / analyse=0x1:0x111 / me=hex / subme=2 / psy=1 / psy_rd=1.00:0.00 / mixed_ref=0 / me_range=16 / chroma_me=1 / trellis=0 / 8x8dct=0 / cqm=0 / deadzone=21,11 / fast_pskip=1 / chroma_qp_offset=0 / threads=12 / sliced_threads=0 / nr=0 / decimate=1 / interlaced=0 / bluray_compat=0 / constrained_intra=0 / bframes=3 / b_pyramid=2 / b_adapt=1 / b_bias=0 / direct=1 / weightb=1 / open_gop=0 / weightp=1 / keyint=250 / keyint_min=25 / scenecut=40 / intra_refresh=0 / rc_lookahead=10 / rc=abr / mbtree=1 / bitrate=2000 / ratetol=1.0 / qcomp=0.60 / qpmin=3 / qpmax=69 / qpstep=4 / ip_ratio=1.40 / aq=1:1.00
Encoded date : UTC 2012-11-21 11:38:28
Tagged date : UTC 2012-11-21 11:50:21
Color primaries : BT.709
Transfer characteristics : BT.709
Matrix coefficients : BT.709

Audio
ID : 2
Format : AAC
Format/Info : Advanced Audio Codec
Format profile : LC
Codec ID : 40
Duration : 1h 57mn
Bit rate mode : Variable
Bit rate : 140 Kbps
Maximum bit rate : 194 Kbps
Channel(s) : 2 channels
Channel positions : Front: L R
Sampling rate : 48.0 KHz
Compression mode : Lossy
Delay relative to video : 80ms
Stream size : 118 MiB (6%)
Encoded date : UTC 2012-11-21 11:38:28
Tagged date : UTC 2012-11-21 11:50:21
Файлы примеров: Презентации
Формат видео: MP4
Видео: avc1, 1278 х 422 pixels, 3.028, 2000 Kbps
Аудио: AAC, 111 Kbps, 2 channels
Скриншоты



Постеры

Соцсети

 

Вернуться в Linux, Unix



Кто сейчас на конференции

Сейчас эту тему просматривают: AhrefsBot и гости: 0