Видео


Сообщение

Видео [Pluralsight] Cisco CCNA: Advanced Ethernet and File Management [2013, ENG]

Сообщение Tutorial » 06 дек 2013, 23:44

Cisco CCNA: Advanced Ethernet and File Management

Год выпуска: 2013
Производитель: Pluralsight
Сайт производителя: http://pluralsight.com/
Автор: Ross Bagurdes
Продолжительность: 4h 53m
Тип раздаваемого материала: Видеоклипы
Язык: Английский
Описание: Advanced Ethernet covers switch loop prevention, enhancing Spanning Tree Protocol convergence, as well as file management, IOS upgrades and password recovery.

Расширенный Ethernet охватывает включить функцию профилактики, повышение Spanning Tree Protocol конвергенции, а также управление файлами, IOS обновления и восстановления пароля.
Содержание
│ cisco-ccna-advanced-ethernet.zip

├───01. File Management
│ 01. Introduction.wmv
│ 02. Configuration Files.wmv
│ 03. TFTP Server.wmv
│ 04. Save Config Files to TFTP.wmv

├───02. Upgrading IOS
│ 01. IOS Upgrades.wmv
│ 02. Examine Cisco.com.wmv
│ 03. Upgrading the IOS on A Router.wmv
│ 04. Upgrading the IOS on A Switch.wmv

├───03. Password Recovery
│ 01. Introduction.wmv
│ 02. Configuration Register.wmv
│ 03. Router Boot Order.wmv
│ 04. Recovering A Password on A Router.wmv
│ 05. Switch Boot Order.wmv
│ 06. Recovering a Password on A Switch.wmv

├───04. Spanning Tree Protocol (STP)
│ 01. Introduction.wmv
│ 02. Switching Loops.wmv
│ 03. Spanning Tree Protocol.wmv
│ 04. Bridge ID and Port Cost.wmv
│ 05. Root Bridge, Root Port, and Designated Port.wmv
│ 06. Spanning Tree Protocol Port States.wmv
│ 07. STP Example.wmv
│ 08. STP Lab Topology.wmv
│ 09. Exploring Spanning Tree Protocol.wmv

├───05. Configuring The Root Bridge and PortFast
│ 01. Introduction.wmv
│ 02. STP - Changing The Root Bridge ID.wmv
│ 03. Configuring The Root Bridge Priority.wmv
│ 04. PortFast.wmv
│ 05. Configuring PortFast.wmv

├───06. STP Topology Changes, PVST, and RSTP
│ 01. Introduction.wmv
│ 02. STP Topology Changes.wmv
│ 03. STP Switch Addition Causes Topology Change.wmv
│ 04. Topology Changes.wmv
│ 05. Per-VLAN Spanning Tree (PVST).wmv
│ 06. Rapid Spanning Tree Protocol (RSTP).wmv

└───07. Switchport Aggregation and The Layer 3 Switch
01. Introduction.wmv
02. EtherChannel.wmv
03. Configure EtherChannel.wmv
04. The Mysterious Layer 3 Switch.wmv
05. How Layer 3 Switches Work.wmv
06. Layer 3 Switch.wmv
Файлы примеров: присутствуют
Формат видео: WMV
audio\video
General
Complete name : C:\01. File Management\02. Configuration Files.wmv
Format : Windows Media
File size : 2.20 MiB
Duration : 1mn 33s
Overall bit rate mode : Variable
Overall bit rate : 198 Kbps
Maximum Overall bit rate : 192 Kbps
Movie name : cisco-ccna-advanced-ethernet-m01
Encoded date : UTC 2013-10-14 18:45:49.740

Video
ID : 2
Format : VC-1
Format profile : MP@HL
Codec ID : WMV3
Codec ID/Info : Windows Media Video 9
Codec ID/Hint : WMV3
Description of the codec : Windows Media Video 9
Duration : 1mn 33s
Bit rate mode : Variable
Bit rate : 19.3 Kbps
Width : 1 024 pixels
Height : 768 pixels
Display aspect ratio : 4:3
Frame rate : 15.000 fps
Color space : YUV
Chroma subsampling : 4:2:0
Bit depth : 8 bits
Scan type : Progressive
Compression mode : Lossy
Bits/(Pixel*Frame) : 0.002
Stream size : 220 KiB (10%)
Language : English (US)

Audio
ID : 1
Format : WMA
Format version : Version 2
Codec ID : 161
Codec ID/Info : Windows Media Audio
Description of the codec : Windows Media Audio 9.2 - 128 kbps, 44 kHz, stereo 1-pass CBR
Duration : 1mn 33s
Bit rate mode : Constant
Bit rate : 128 Kbps
Channel(s) : 2 channels
Sampling rate : 44.1 KHz
Bit depth : 16 bits
Stream size : 1.42 MiB (65%)
Language : English (US)
Скриншоты

Постеры

Соцсети

 

  • Похожие торренты
    Ответы
    Просмотры
    Последнее сообщение

Вернуться в Сеть и безопасность



Кто сейчас на конференции

Сейчас эту тему просматривают: CCBot и гости: 0