Видео


Сообщение

Видео [Pluralsight] Cisco CCNA: WAN Technologies [2013, ENG]

Сообщение Tutorial » 06 дек 2013, 23:45

Cisco CCNA: WAN Technologies

Год выпуска: 2013
Производитель: Pluralsight
Сайт производителя: http://pluralsight.com/
Автор: Ross Bagurdes
Продолжительность: 2h 5m
Тип раздаваемого материала: Видеоклипы
Язык: Английский
Описание: In this course, we will examine wide area network (WAN) technologies and configuration.

В этом курсе мы исследуем технологии глобальной сети (WAN) и конфигурацию.
Содержание
+---1.Serial WAN Communication
¦ 1.Wide Area Networks (WANs).mp4
¦ 2.WAN Technologies.mp4
¦ 3.Serial Wide Area Networks.mp4
¦ 4.Point-to-Point Protocol (PPP).mp4
¦ 5.Configure PPP.mp4
¦ 6.Configuring Authentication with CHAP.mp4
¦
+---2.Frame Relay
¦ 1.Frame Relay.mp4
¦ 2.Frame Relay Terminology.mp4
¦ 3.DLCI.mp4
¦ 4.FECN, BECN, and DE Bit.mp4
¦ 5.Examine Frame Relay.mp4
¦
+---3.Other WAN Technologies
¦ 1.Other WAN Technologies.mp4
¦ 2.Ethernet WAN.mp4
¦ 3.Cable Technology and DSL.mp4
¦ 4.Dial-up and ISDN.mp4
¦ 5.Wireless Ethernet Point-to-Point.mp4
¦ 6.Cellular and Satellite Wireless.mp4
¦
+---4.Virtual Private Networks (VPNs)
1.Site-to-Site and Client VPNs.mp4
2.Basic VPN Operation.mp4
3.The Generic Routing Encapsulation (GRE) Tunnel.mp4
4.Configure GRE Tunnel.mp4
Файлы примеров: отсутствуют
Формат видео: MP4
Audio\Video
General
Complete name : C:\1.Wide Area Networks (WANs).mp4
Format : MPEG-4
Format profile : Base Media / Version 2
Codec ID : mp42
File size : 11.8 MiB
Duration : 6mn 9s
Overall bit rate mode : Variable
Overall bit rate : 267 Kbps
Encoded date : UTC 2013-09-12 21:50:29
Tagged date : UTC 2013-09-12 21:51:06
Writing application : HandBrake 0.9.8 2012071700

Video
ID : 1
Format : AVC
Format/Info : Advanced Video Codec
Format profile : Baseline@L3.1
Format settings, CABAC : No
Format settings, ReFrames : 2 frames
Format settings, GOP : M=1, N=50
Codec ID : avc1
Codec ID/Info : Advanced Video Coding
Duration : 6mn 9s
Bit rate mode : Variable
Bit rate : 149 Kbps
Width : 1 024 pixels
Height : 768 pixels
Display aspect ratio : 4:3
Frame rate mode : Variable
Frame rate : 15.000 fps
Minimum frame rate : 14.925 fps
Maximum frame rate : 15.152 fps
Color space : YUV
Chroma subsampling : 4:2:0
Bit depth : 8 bits
Scan type : Progressive
Bits/(Pixel*Frame) : 0.013
Stream size : 6.58 MiB (56%)
Writing library : x264 core 120
Encoding settings : cabac=0 / ref=2 / deblock=1:0:0 / analyse=0x1:0x111 / me=umh / subme=6 / psy=1 / psy_rd=1.00:0.00 / mixed_ref=1 / me_range=16 / chroma_me=1 / trellis=0 / 8x8dct=0 / cqm=0 / deadzone=21,11 / fast_pskip=1 / chroma_qp_offset=-2 / threads=12 / sliced_threads=0 / nr=0 / decimate=1 / interlaced=0 / bluray_compat=0 / constrained_intra=0 / bframes=0 / weightp=0 / keyint=50 / keyint_min=15 / scenecut=40 / intra_refresh=0 / rc_lookahead=40 / rc=crf / mbtree=1 / crf=20.0 / qcomp=0.60 / qpmin=3 / qpmax=69 / qpstep=4 / ip_ratio=1.40 / aq=1:1.00
Encoded date : UTC 2013-09-12 21:50:29
Tagged date : UTC 2013-09-12 21:51:06
Color primaries : BT.709
Transfer characteristics : BT.709
Matrix coefficients : BT.709

Audio
ID : 2
Format : AAC
Format/Info : Advanced Audio Codec
Format profile : LC
Codec ID : 40
Duration : 6mn 9s
Bit rate mode : Variable
Bit rate : 114 Kbps
Maximum bit rate : 156 Kbps
Channel(s) : 2 channels
Channel positions : Front: L R
Sampling rate : 44.1 KHz
Compression mode : Lossy
Stream size : 5.04 MiB (43%)
Language : English
Encoded date : UTC 2013-09-12 21:50:29
Tagged date : UTC 2013-09-12 21:51:06
Скриншоты

Постеры

Соцсети

 

  • Похожие торренты
    Ответы
    Просмотры
    Последнее сообщение

Вернуться в Сеть и безопасность



Кто сейчас на конференции

Сейчас эту тему просматривают: CCBot и гости: 0