Видео


Сообщение

Видео Cam Con Transpo By Paul Wilson [2011, Фокусы, HDRip, ENG] (Видеоурок)

Сообщение asder » 01 май 2012, 09:30

Cam Con Transpo By Paul Wilson
Страна: USA
Тематика: Фокусы
Тип раздаваемого материала: Видеоурок
Продолжительность: 00:11:46
Год выпуска: 2011
Язык: Английский
Перевод: Отсутствует
Описание: Paul Wilson explains two methods to achieve a classic plot in card magic originally created by Bill Goodwin and later popularized by Ernest Earick. The magician places the Aces face down in four different parts of the deck. In waving the four Kings over the deck they magically transpose --- the Aces are now on top and the Kings in four different parts.
Описание на русском: Паул Уилсон показывает 2 метода классического трюка: фокусник кладёт 4 туза лицом вниз в разные места колоды, оставляя 4 королей наверху, _магическое_движение_ и тузы теперь наверху, а короли в разных местах в колоде.
Видюшечка: http://vimeo.com/11115492
Качество: HDRip
Формат: FLV
General
Complete name : \\CamCon Transpo by Paul Wilson.flv
Format : Flash Video
File size : 164 MiB
Duration : 11mn 45s
Overall bit rate : 1 951 Kbps
Video
Format : VP6
Duration : 11mn 45s
Bit rate : 1 600 Kbps
Width : 1 280 pixels
Height : 720 pixels
Display aspect ratio : 16:9
Frame rate mode : Constant
Frame rate : 29.970 fps
Bits/(Pixel*Frame) : 0.058
Stream size : 135 MiB (82%)
Audio
Format : MPEG Audio
Format version : Version 1
Format profile : Layer 3
Mode : Joint stereo
Duration : 11mn 45s
Bit rate mode : Constant
Bit rate : 256 Kbps
Channel(s) : 2 channels
Sampling rate : 44.1 KHz
Bit depth : 16 bits
Stream size : 21.5 MiB (13%)

Постеры

Соцсети

 

Статистика

Автор: asder
Добавлен: 01 май 2012, 09:30
Размер: 164.16 МБ
Размер: 172 134 750 байт
Сидеров: 30
Личеров: 4
Скачали: 1
Здоровье: 100%
Раздающих: 100%
Скорость скачивания: 0 байт/сек
Скорость раздачи: 0 байт/сек
Последний сидер: 8 месяцев 15 дней 6 часов 3 минуты 52 секунды назад
Последний личер: 2 месяца 17 дней 8 часов 39 минут 21 секунду назад
Приватный: Нет (DHT включён)
Скачать торрент
Скачать торрент
[ Размер 14.07 КБ / Просмотров 5 ]

Поделиться


Вернуться в Фокусы и трюки