Видео


Сообщение

Видео Красное зеркало by Helder Guimaraes / Red Mirror by Helder Guimaraes (Helder Guimaraes) [2010, Карточные фокусы, ENG] (Видеоурок)

Сообщение asder » 01 май 2012, 09:38

Красное зеркало by Helder Guimarães / Red Mirror by Helder Guimarães
Страна: USA
Тематика: Карточные фокусы
Тип раздаваемого материала: Видеоурок
Продолжительность: 3 ч. 15 м.
Год выпуска: 2010
Язык: Английский
Перевод: Отсутствует
Описание:
Эффектные карточные фокусы, исполняемые Helder'oм Guimaraes'ом перед публикой, в студии, с подробным объяснением.
Исключительно ловкость рук, подробнее -
Превью :
Red Mirror is a look inside the mind of a world-class performer and FISM champion who many consider the most important magician of his generation.
Helder Guimarães is a studied practitioner of both magic and theatre with an experienced understanding of the arts. Offered on this volume is a collection of ten original card routines, but more importantly, his creative process and thinking behind each.
"Watching Helder will make you a better magician." - Derek DelGaudio
Each routine has been broken down into its own segment and includes a separate studio performance and explanation. Helder then provides commentary after each effect, in which he discusses its development and offers ideas for you to take it further.
Besides the many sleights Helder utilizes to achieve his effects, the Ascanio Spread, Stuart Gordon Double Turnover, and Elmsely Count have their own special segments and offer detailed instruction on their technique.
Learn premier card magic from a master and gain invaluable insight into the art.
Over 3.5 hours featuring a live performance at The Magic Castle, an interview, studio performances and explanations shot with multiple HD cameras for superior picture quality and coverage, effect commentary, bad english and more!
Качество : DVDRip
Формат: 3GP
Видео кодек: MPEG-4
Аудио кодек: AAC
Видео:464 kbps, 480*320
Аудио: 96,0 kbps, 44.1 Khz, стерео
Видео
Идентификатор : 1
Формат : AVC
Формат/Информация : Advanced Video Codec
Профиль формата :
Параметр CABAC формата : Нет
Параметр ReFrames формата : 1 кадр
Идентификатор кодека : avc1
Идентификатор кодека/Информация : Advanced Video Coding
Продолжительность : 3 ч. 15 м.
Вид битрейта : Переменный
Битрейт : 464 Кбит/сек
Ширина : 480 пикс.
Высота : 320 пикс.
Соотношение сторон : 3:2
Режим частоты кадров : Постоянный
Частота кадров : 15,000 кадр/сек
Цветовое пространство : YUV
Подвыборка цветности : 4:2:0
Битовая глубина : 8 бит
Тип развёртки : Прогрессивная
Бит/(Пиксели*Кадры) : 0.202
Размер потока : 650 Мбайт (82%)
Дата кодирования : UTC 2011-01-23 14:03:19
Дата пометки : UTC 2011-01-23 14:03:19
Аудио
Идентификатор : 2
Формат : AAC
Формат/Информация : Advanced Audio Codec
Профиль формата : LC
Идентификатор кодека : 40
Продолжительность : 3 ч. 15 м.
Вид битрейта : Переменный
Битрейт : 96,0 Кбит/сек
Канал(ы) : 2 канала(ов)
Расположение каналов : Front: L R
Частота : 44,1 КГц
Метод сжатия : С потерями
Размер потока : 134 Мбайт (17%)
Дата кодирования : UTC 2011-01-23 14:03:19
Дата пометки : UTC 2011-01-23 14:03:19


Постеры

Соцсети

 

Статистика

Автор: asder
Добавлен: 01 май 2012, 09:38
Размер: 789.95 МБ
Размер: 828 318 017 байт
Сидеров: 21
Личеров: 15
Скачали: 2
Здоровье: 100%
Раздающих: 100%
Скорость скачивания: 0 байт/сек
Скорость раздачи: 0 байт/сек
Последний сидер: 1 месяц 21 день 1 час 59 минут назад
Последний личер: 1 месяц 21 день 1 час 59 минут назад
Приватный: Нет (DHT включён)
Скачать торрент
Скачать торрент
[ Размер 16.67 КБ / Просмотров 11 ]

Поделиться


Вернуться в Фокусы и трюки