Видео


Сообщение

Видео PUT by Paul Wilson [2011, Фокусы, DVDRip, ENG] (Видеоурок)

Сообщение asder » 01 май 2012, 09:40

PUT by Paul Wilson
Страна: USA
Тематика: Фокусы
Тип раздаваемого материала: Видеоурок
Продолжительность: 00:07:51
Год выпуска: 2011
Язык: Английский
Перевод: Отсутствует
Описание: PUT it in the Card Box is Paul Wilson's refined handling of Eddie Fields "Way ahead card to card case." After a spectator secretly writes down a prediction on a piece of paper five freely chosen cards are shown and placed face-up into the center of the deck. Astonishingly, the predicted card vanishes from the deck and ends up inside the card box. A miracle among card tricks that virtually anyone can learn in this eight minute instructional video. (с) D&D
Описание на русском: Простой фокус с предсказаниями от зрителя и перемещением карты в коробочку, для которого почти не требуется ловкость рук.
Видюшечка: http://vimeo.com/22004755
Качество: DVDRip
Формат: MPG
General
Complete name : \\PUT by Paul Wilson.mpg
Format : MPEG-PS
File size : 115 MiB
Duration : 7mn 52s
Overall bit rate : 2 043 Kbps
Video
ID : 224 (0xE0)
Format : MPEG Video
Format version : Version 2
Format profile : Main@Main
Format settings, BVOP : No
Format settings, Matrix : Default
Format settings, GOP : M=1, N=18
Duration : 7mn 52s
Bit rate mode : Variable
Bit rate : 1 874 Kbps
Nominal bit rate : 9 800 Kbps
Width : 720 pixels
Height : 480 pixels
Display aspect ratio : 16:9
Frame rate : 29.970 fps
Standard : NTSC
Color space : YUV
Chroma subsampling : 4:2:0
Bit depth : 8 bits
Scan type : Progressive
Bits/(Pixel*Frame) : 0.181
Stream size : 106 MiB (92%)
Audio
ID : 128 (0x80)
Format : AC-3
Format/Info : Audio Coding 3
Mode extension : CM (complete main)
Duration : 7mn 52s
Bit rate mode : Constant
Bit rate : 128 Kbps
Channel(s) : 2 channels
Channel positions : Front: L R
Sampling rate : 48.0 KHz
Bit depth : 16 bits
Stream size : 7.21 MiB (6%)

Постеры

Соцсети

 

Статистика

Автор: asder
Добавлен: 01 май 2012, 09:40
Размер: 115.1 МБ
Размер: 120 694 784 байт
Сидеров: 10
Личеров: 3
Скачали: 1
Здоровье: 100%
Раздающих: 100%
Скорость скачивания: 0 байт/сек
Скорость раздачи: 0 байт/сек
Последний сидер: 8 месяцев 15 дней 6 часов 14 минут 39 секунд назад
Последний личер: 1 месяц 21 день 2 часа 10 минут 10 секунд назад
Приватный: Нет (DHT включён)
Скачать торрент
Скачать торрент
[ Размер 19.21 КБ / Просмотров 5 ]

Поделиться


Вернуться в Фокусы и трюки