Видео


Сообщение

Видео Essential Magic Conference - EMC [2010, Фокусы, DVDRip] (Видеоурок)

Сообщение asder » 01 май 2012, 09:49

Страна проведения: Португалия
Тематика: Фокусы
Год выпуска: 2010
Язык: Английский
Перевод: Не требуется

Общее описание: EMC организован Luis de Matos, Marco Tempest и David Britland. Это - некоммерческое объединение, разработанное, чтобы примирить всех фокусников через Интернет, чтобы обучить их, поделиться опытом и сотрудничать в будущем.
Все лекции идут на английском языке, или если требуется переводиться на английский.
Это пожалуй самое важное событие в мире магии 2010 года. Ничего подобного еще не было! Эта конференция, где приняли участие 33 известнейших фокусников из многих стран:
Anton Lopez, Apollo Robbins, Barry and Stuart , Barry and Stuart , Carlos Vaquera , Cyril Takayama , Dani DaOrtiz , David Britland , De'Vo Vom Schattenreich , Eric Eswin ,Eric Mead , Finn Jon , Gaetan Bloom , Gazzo , Gene Matsuura , Guy Hollingworth , Helder Guimarães , James Freedman , Jason England , Lennart Green , Luis de Matos , Marco Tempest , Max Maven , Miguel Angel Gea , Mike Caveney , Paul Kieve , Paulino Gil , Ponta The Smith , Richard McDougall , Richard Wiseman , Stan Allen , Ton Onosaka , Topas , William Kalush.

Все эти люди поделятся своим опытом, мыслями и оригинальными решениями! Все выступления очень интересны. Заранее предупреждаю - обучения есть, но не всех трюков.

Превью:
Онлайн видеоОнлайн видеоОнлайн видео

У кого есть возможность добавить ещё видео с этой конференции - свяжитесь со мной, добавим к раздаче.

Вся конференция состоит из 9 частей. Все части кроме первой и последней, разбиты на 2 штуки. В этой раздаче я собрал ВСЕ.
Все 3 дня выступлений. Огромный видео урок из волшебного сооружения - Studio 33, Португалия.
Выступления записаны в режиме Online, без вторых дублей и тд...Поэтому очень интересно
Я настоятельно рекомендую ознакомиться с этим материалом. Очень-очень много полезных вещей, практически в каждом аспекте фокусов! Детально разобрана как теория так и практика... Эта раздача поможет как новичку, так и профессионалам.
У кого есть ещё материал по этому событию, кидайте мне, добавим в раздачу.
The Essential Magic Conference is the world’s first web conference for magicians. 33 speakers over 3 days of conference streamed live worldwide. Register to attend today - access passes are limited.
About the conference:
#77The Essential Magic Conference is the world’s first web conference for magicians. It will take place on the 15th, 16th and 17th of July 2010. The entire conference will be broadcast via the internet. It features lectures and demonstrations by some of the most important thinkers in magic. You can watch the lectures live from your computer. Or you can view the lectures on-demand immediately following their broadcast. There are opportunities for you to interact with and question the conference speakers. As an additional bonus, every subscriber receives a set of DVDs containing every lecture. And we want you to be part of it.
Conference speakers:
Anton Lopez, Apollo Robbins, Barry and Stuart , Barry and Stuart , Carlos Vaquera , Cyril Takayama , Dani DaOrtiz , David Britland , De'Vo Vom Schattenreich , Eric Eswin ,Eric Mead , Finn Jon , Gaetan Bloom , Gazzo , Gene Matsuura , Guy Hollingworth , Helder Guimarães , James Freedman , Jason England , Lennart Green , Luis de Matos , Marco Tempest , Max Maven , Miguel Angel Gea , Mike Caveney , Paul Kieve , Paulino Gil , Ponta The Smith , Richard McDougall , Richard Wiseman , Stan Allen , Ton Onosaka , Topas , William Kalush .
Who is organising the Essential Magic Conference?
The EMC is organised by Luis de Matos, Marco Tempest and David Britland. It is a not-for-profit venture designed to bring together magicians of all kinds via the internet to learn, share and collaborate.
Where is the conference being held?
The conference is being held at Studio 33, a purpose build magic facility in Ansiao, Portugal. The facility was created by Luis de Matos as a magic headquarters. We’ll be giving you a video tour of the premises shortly. But you will watch the conference from the comfort of your own home.
What's included in the registration?#77Registering for the conference entitles you to several things:Access to the lectures as they are broadcast live on the internet.
Access to the lectures as video on-demand immediately following the broadcast.
A complete set of DVDs mailed to you and containing video of all the lectures and bonus materials generated by the conference.
Ability to participate in the conference by creating your own Member Page on the EMC website.
Ability to join in Question and Answer sessions and online interviews with our speakers.What language are the lectures in?
All lectures are broadcast in English or, if necessary, translated into English.
Will all the speakers be at Studio 33?
Yes, all the Speakers will be at Studio 33 in Portugal. This is not a skype conference. All the lectures will be shot on a multi-camera set up and delivered to you in high-quality video live and on-demand. And because all the Speakers are together we have other opportunities for panel discussions and question and answer sessions, details of which will be announced later.

Session 1
Продолжительность: 1:01:10
Качество : DVDRip
Формат: MP4
Видео: Video: MPEG4 Video (H264) 580x328 25.00fps [Video]
Аудио: Audio: AAC 48000Hz stereo 1536Kbps [Audio]
Фокусники: Luis de Matos,Eric Mead, Ponta The Smith, Dani DaOrtiz
Вначале выступает Luis de Matos(Portugal) - с описанием в каком ключе будет проходить конференция. Далее он знакомит нас со всеми 33 участниками конференции. Потом он говорит о проделанной работе, спонсорах и вообще всех людях, которые принимали участие в создании EMC.
В 12:10 мы можем наблюдать выступление первого участника - Eric Mead (United States), тема выступления - Puzzles, Tricks and Magic. Тут он покажет несколько вариаций появления тузов и покажет разницу между ловкостью и "волшебством". А так же продемонстрирует рутинку с монетами.
В 27:02 выступает Ponta The Smith (Japan) - отличная рутинка с обычными монетами, под красивую музыку... Рутина очень интересная и содержит и карты, и верёвочку и кольцо, а так же крекеры)) В этой части он продемонстрирует только исполнение.
В 34:49 мы увидим неподражаемого Dani DaOrtiz (Spain). Вот очень позитивный человек. Правда английский немного хромает, но его выступление от этого не теряет своего изящества. Он продемонстрирует интересные техники с картами, а так же после выступления объяснит их)
В 52:20 начнётся секция вопросов от интернет пользователей и ответов от артистов, которые выступали в этой секции.
Код:

General
Complete name                    : EMC - Session 1.mp4
Format                           : MPEG-4
Format profile                   : Base Media
Codec ID                         : isom
File size                        : 355 MiB
Duration                         : 1h 1mn
Overall bit rate                 : 812 Kbps
Writing application              : Lavf52.68.0
Video
ID                               : 1
Format                           : AVC
Format/Info                      : Advanced Video Codec
Format profile                   :
Format settings, CABAC           : No
Format settings, ReFrames        : 1 frame
Codec ID                         : avc1
Codec ID/Info                    : Advanced Video Coding
Duration                         : 1h 1mn
Bit rate mode                    : Variable
Bit rate                         : 700 Kbps
Width                            : 580 pixels
Height                           : 328 pixels
Display aspect ratio             : 16:9
Frame rate mode                  : Constant
Frame rate                       : 25.000 fps
Color space                      : YUV
Chroma subsampling               : 4:2:0
Bit depth                        : 8 bits
Scan type                        : Progressive
Bits/(Pixel*Frame)               : 0.147
Stream size                      : 306 MiB (86%)
Writing library                  : x264 core 98
Encoding settings                : cabac=0 / ref=1 / deblock=1:0:0 / analyse=0x1:0x111 / me=umh / subme=8 / psy=1 / psy_rd=1.00:0.00 / mixed_ref=0 / me_range=16 / chroma_me=1 / trellis=0 / 8x8dct=0 / cqm=0 / deadzone=21,11 / fast_pskip=1 / chroma_qp_offset=-2 / threads=1 / sliced_threads=0 / nr=0 / decimate=1 / interlaced=0 / constrained_intra=0 / bframes=0 / weightp=0 / keyint=250 / keyint_min=50 / scenecut=40 / intra_refresh=0 / rc_lookahead=40 / rc=2pass / mbtree=1 / bitrate=700 / ratetol=1.0 / qcomp=0.60 / qpmin=10 / qpmax=51 / qpstep=4 / cplxblur=20.0 / qblur=0.5 / vbv_maxrate=10000 / vbv_bufsize=10000 / ip_ratio=1.41 / aq=1:1.00 / nal_hrd=none
Language                         : English
Tagged date                      : UTC 2010-07-16 19:50:00
Audio
ID                               : 2
Format                           : AAC
Format/Info                      : Advanced Audio Codec
Format version                   : Version 4
Format profile                   : LC
Codec ID                         : 40
Duration                         : 1h 1mn
Bit rate mode                    : Variable
Bit rate                         : 109 Kbps
Channel(s)                       : 2 channels
Channel positions                : Front: L R
Sampling rate                    : 48.0 KHz
Stream size                      : 47.9 MiB (13%)
Language                         : English
Tagged date                      : UTC 2010-07-16 19:50:00
Session 2 Part 1
Продолжительность: 00:50:29
Качество : DVDRip
Формат: MP4
Видео: Video: MPEG4 Video (H264) 580x328 25.00fps [Video]
Аудио: Audio: AAC 48000Hz stereo 1536Kbps [Audio]
Фокусники: Topas, Helder Guimarães,Stan Allen
Эту секцию открывает Topas (Germany), демонстрирует быстрый трюк с бутылкой, рекламирует Google Chromeи не откладывая на долго, он приглашает первого фокусника.
В 2:03 мы узнаём, что им будет - Gaetan Bloom (France). Это искромётное выступление, с объяснением всех секретов, после демонстрации. 20 минут выступления, которое научит Вас быть креативным , и подкинет много интересных идей. По настоящему новый материал.
В 21:58 выступает Helder Guimarães (Portugal), с его великолепной карточной техникой! Транспозиция(перемещение) подписанных тузов и королей.
В 30:12 начинает свою лекцию Stan Allen (United States), название лекции - Things Worth Thinking About. Много разнообразных советов начинающим фокусникам, которые хотят выступать профессионально, которые хотят быть известными и получать много денег.
Код:

General
Complete name                    : EMC - Session 2 Part 1.mp4
Format                           : MPEG-4
Format profile                   : Base Media
Codec ID                         : isom
File size                        : 294 MiB
Duration                         : 50mn 29s
Overall bit rate                 : 815 Kbps
Writing application              : Lavf52.68.0
Video
ID                               : 1
Format                           : AVC
Format/Info                      : Advanced Video Codec
Format profile                   :
Format settings, CABAC           : No
Format settings, ReFrames        : 1 frame
Codec ID                         : avc1
Codec ID/Info                    : Advanced Video Coding
Duration                         : 50mn 29s
Bit rate mode                    : Variable
Bit rate                         : 700 Kbps
Width                            : 580 pixels
Height                           : 328 pixels
Display aspect ratio             : 16:9
Frame rate mode                  : Constant
Frame rate                       : 25.000 fps
Color space                      : YUV
Chroma subsampling               : 4:2:0
Bit depth                        : 8 bits
Scan type                        : Progressive
Bits/(Pixel*Frame)               : 0.147
Stream size                      : 253 MiB (86%)
Writing library                  : x264 core 98
Encoding settings                : cabac=0 / ref=1 / deblock=1:0:0 / analyse=0x1:0x111 / me=umh / subme=8 / psy=1 / psy_rd=1.00:0.00 / mixed_ref=0 / me_range=16 / chroma_me=1 / trellis=0 / 8x8dct=0 / cqm=0 / deadzone=21,11 / fast_pskip=1 / chroma_qp_offset=-2 / threads=1 / sliced_threads=0 / nr=0 / decimate=1 / interlaced=0 / constrained_intra=0 / bframes=0 / weightp=0 / keyint=250 / keyint_min=50 / scenecut=40 / intra_refresh=0 / rc_lookahead=40 / rc=2pass / mbtree=1 / bitrate=700 / ratetol=1.0 / qcomp=0.60 / qpmin=10 / qpmax=51 / qpstep=4 / cplxblur=20.0 / qblur=0.5 / vbv_maxrate=10000 / vbv_bufsize=10000 / ip_ratio=1.41 / aq=1:1.00 / nal_hrd=none
Language                         : English
Tagged date                      : UTC 2010-07-21 15:40:18
Audio
ID                               : 2
Format                           : AAC
Format/Info                      : Advanced Audio Codec
Format version                   : Version 4
Format profile                   : LC
Codec ID                         : 40
Duration                         : 50mn 29s
Bit rate mode                    : Variable
Bit rate                         : 112 Kbps
Channel(s)                       : 2 channels
Channel positions                : Front: L R
Sampling rate                    : 48.0 KHz
Stream size                      : 40.5 MiB (14%)
Language                         : English
Tagged date                      : UTC 2010-07-21 15:40:18
Session 2 Part 2
Продолжительность: 01:10:18
Качество : DVDRip
Формат: MP4
Видео: Video: MPEG4 Video (H264) 580x328 25.00fps [Video]
Аудио: Audio: AAC 48000Hz stereo 1536Kbps [Audio]
Фокусники: Topas, Marco Tempest, Barry and Stuart, Carlos Vaquera,David Britland,Marco Tempest,Cyril Takayama,Luis de Matos,Max Maven
Эту секцию продолжает Topas (Germany), с технологий...
В 01:50, вы увидите умопомрачительное шоу. Marco Tempest (United States) по настоящему удивит своей креативностью. Трюк с неограниченным потенциалом. Magic Projection название этого трюка. Marco покажет то, как новые технологии могут продвинуть искусство магии. теперь человечек не рисуется, а проецируется на лист. и фокусник работает больше как аниматор, но эффект от этого никак не страдает.
В 08:30 мы увидим, что подрастающее поколение фокусников может многое. Barry and Stuart (United Kingdom), докажут это, прекрасной лекцией с названием - Everything we've learn so far. Полноценное исследование было проведено в области, в которой они работают. Очень много советов, по выступлениям.
В 27:47 на конференции выступит Carlos Vaquera (Belgium), с замечательной пантомимой, сценической манипуляцией с 4 тузами, потом монетка)
В 32:21 будет секция диалог со следующими артистами - David Britland (United Kingdom), Marco Tempest (United States),Cyril Takayama (Japan),Luis de Matos (Portugal),Max Maven (United States). Тема диалога Magic On Television. Думаю по названию понятно, что речь будет идти о фокусах и иллюзиях на телевидении.
В 57:30 мы увидим демонстрацию настоящего уличного мага. Правда традиционного, а не как Дэвид Блейн. Gazzo (United Kingdom) сначала повеселиться над De'Vo, не показывающего лица, а потом покажет Barry and Stuart, что можно удивлять зрителя, даже показываю амбициозную карту 14(!) раз подряд!
В 1:08:15 снова начинается серия вопросы-ответы. Я как и Topas не могу поверить, что это только 2 секция...А таких будет 9...
Код:

General
Complete name                    : EMC - Session 2 Part 2.mp4
Format                           : MPEG-4
Format profile                   : Base Media
Codec ID                         : isom
File size                        : 408 MiB
Duration                         : 1h 10mn
Overall bit rate                 : 812 Kbps
Writing application              : Lavf52.68.0
Video
ID                               : 1
Format                           : AVC
Format/Info                      : Advanced Video Codec
Format profile                   :
Format settings, CABAC           : No
Format settings, ReFrames        : 1 frame
Codec ID                         : avc1
Codec ID/Info                    : Advanced Video Coding
Duration                         : 1h 10mn
Bit rate mode                    : Variable
Bit rate                         : 700 Kbps
Width                            : 580 pixels
Height                           : 328 pixels
Display aspect ratio             : 16:9
Frame rate mode                  : Constant
Frame rate                       : 25.000 fps
Color space                      : YUV
Chroma subsampling               : 4:2:0
Bit depth                        : 8 bits
Scan type                        : Progressive
Bits/(Pixel*Frame)               : 0.147
Stream size                      : 352 MiB (86%)
Writing library                  : x264 core 98
Encoding settings                : cabac=0 / ref=1 / deblock=1:0:0 / analyse=0x1:0x111 / me=umh / subme=8 / psy=1 / psy_rd=1.00:0.00 / mixed_ref=0 / me_range=16 / chroma_me=1 / trellis=0 / 8x8dct=0 / cqm=0 / deadzone=21,11 / fast_pskip=1 / chroma_qp_offset=-2 / threads=1 / sliced_threads=0 / nr=0 / decimate=1 / interlaced=0 / constrained_intra=0 / bframes=0 / weightp=0 / keyint=250 / keyint_min=50 / scenecut=40 / intra_refresh=0 / rc_lookahead=40 / rc=2pass / mbtree=1 / bitrate=700 / ratetol=1.0 / qcomp=0.60 / qpmin=10 / qpmax=51 / qpstep=4 / cplxblur=20.0 / qblur=0.5 / vbv_maxrate=10000 / vbv_bufsize=10000 / ip_ratio=1.41 / aq=1:1.00 / nal_hrd=none
Language                         : English
Tagged date                      : UTC 2010-07-22 16:33:36
Audio
ID                               : 2
Format                           : AAC
Format/Info                      : Advanced Audio Codec
Format version                   : Version 4
Format profile                   : LC
Codec ID                         : 40
Duration                         : 1h 10mn
Bit rate mode                    : Variable
Bit rate                         : 109 Kbps
Channel(s)                       : 2 channels
Channel positions                : Front: L R
Sampling rate                    : 48.0 KHz
Stream size                      : 54.8 MiB (13%)
Language                         : English
Tagged date                      : UTC 2010-07-22 16:33:36
Session 3 Part 1
Продолжительность: 01:02:45
Качество : DVDRip
Формат: MP4
Видео: Video: MPEG4 Video (H264) 580x328 25.00fps [Video]
Аудио: Audio: AAC 48000Hz stereo 1536Kbps [Audio]
Фокусники: Eric Mead,Mike Caveney,James Freedman,Apollo Robbins
Третью секцию ведёт Eric Mead (United States).
В 00:58 на сцене появляется Mike Caveney (United States), с историчской лекцией-детектив о The Zig-Zag Scandal. Очень захватывающая и нравоучительная история.
В 20:33 мы увидим семинар от James Freedman (United Kingdom) об отношении к фокусам. Об отношении фокусника, показывающего фокусы к фокусам.
В 37:42 уникальная демонстрация от Max Maven (United States). технику, которую он ещё никогда не показывал ранее. Это психология и иллюзия вместе взятые. Полное объяснение этого трюка, доступно для участников EMC, в бонус DVD.
В 43:47 великий "сценический вор" Apollo Robbins (United States), расскажет о применении аспектов воровства в магии. Много полезного о фокусах внимания, об управлении вниманием и тд.
Код:

General
Complete name                    : EMC - Session 3 Part1.mp4
Format                           : MPEG-4
Format profile                   : Base Media
Codec ID                         : isom
File size                        : 365 MiB
Duration                         : 1h 2mn
Overall bit rate                 : 813 Kbps
Writing application              : Lavf52.68.0
Video
ID                               : 1
Format                           : AVC
Format/Info                      : Advanced Video Codec
Format profile                   :
Format settings, CABAC           : No
Format settings, ReFrames        : 1 frame
Codec ID                         : avc1
Codec ID/Info                    : Advanced Video Coding
Duration                         : 1h 2mn
Bit rate mode                    : Variable
Bit rate                         : 700 Kbps
Width                            : 580 pixels
Height                           : 328 pixels
Display aspect ratio             : 16:9
Frame rate mode                  : Constant
Frame rate                       : 25.000 fps
Color space                      : YUV
Chroma subsampling               : 4:2:0
Bit depth                        : 8 bits
Scan type                        : Progressive
Bits/(Pixel*Frame)               : 0.147
Stream size                      : 314 MiB (86%)
Writing library                  : x264 core 98
Encoding settings                : cabac=0 / ref=1 / deblock=1:0:0 / analyse=0x1:0x111 / me=umh / subme=8 / psy=1 / psy_rd=1.00:0.00 / mixed_ref=0 / me_range=16 / chroma_me=1 / trellis=0 / 8x8dct=0 / cqm=0 / deadzone=21,11 / fast_pskip=1 / chroma_qp_offset=-2 / threads=1 / sliced_threads=0 / nr=0 / decimate=1 / interlaced=0 / constrained_intra=0 / bframes=0 / weightp=0 / keyint=250 / keyint_min=50 / scenecut=40 / intra_refresh=0 / rc_lookahead=40 / rc=2pass / mbtree=1 / bitrate=700 / ratetol=1.0 / qcomp=0.60 / qpmin=10 / qpmax=51 / qpstep=4 / cplxblur=20.0 / qblur=0.5 / vbv_maxrate=10000 / vbv_bufsize=10000 / ip_ratio=1.41 / aq=1:1.00 / nal_hrd=none
Language                         : English
Tagged date                      : UTC 2010-07-21 22:12:10
Audio
ID                               : 2
Format                           : AAC
Format/Info                      : Advanced Audio Codec
Format version                   : Version 4
Format profile                   : LC
Codec ID                         : 40
Duration                         : 1h 2mn
Bit rate mode                    : Variable
Bit rate                         : 111 Kbps
Channel(s)                       : 2 channels
Channel positions                : Front: L R
Sampling rate                    : 48.0 KHz
Stream size                      : 49.6 MiB (14%)
Language                         : English
Tagged date                      : UTC 2010-07-21 22:12:10
Session 3 Part 2
Продолжительность: 00:56:09
Качество : DVDRip
Формат: MP4
Видео: Video: MPEG4 Video (H264) 580x328 25.00fps [Video]
Аудио: Audio: AAC 48000Hz stereo 1536Kbps [Audio]
Фокусники: Eric Mead, Richard McDougall,Paul Kieve,Lennart Green
Вторую половину ведёт уже знакомый нам Eric Mead (United States).
В 00:22 на сцену выходит Richard McDougall (United Kingdom) с его темой - Use of Imagination. Материал очень полезный и нужный, для постановки своих трюков и номеров.
В 14:54 мы можем наблюдать, за удивительной демонстрацией фокуса из Гарри-Поттера, от его создателя - Paul Kieve (United Kingdom). Он покажет механизм, который он и его команда придумала, для создания эффект само-закрывающейся карты из 3 части Гарри Поттера.
В 21:14 демонстрирует собственной персоной - Lennart Green (Sweden). Все трюки в живую. Абсолютно неподражаемая техника контроля карт. А так же объяснение некоторых техник. Аж сердце кровью обливается, сказал автор.Да, я не ошибся, объяснение как выполняются легендарные техники, до официального выхода семинара от Lennart Green!
В 40:02 начинается секция вопросов-ответов.
Закончился первый день конференции.
Код:

General
Complete name                    : EMC - Session 3 Part 2.mp4
Format                           : MPEG-4
Format profile                   : Base Media
Codec ID                         : isom
File size                        : 327 MiB
Duration                         : 56mn 9s
Overall bit rate                 : 814 Kbps
Writing application              : Lavf52.68.0
Video
ID                               : 1
Format                           : AVC
Format/Info                      : Advanced Video Codec
Format profile                   :
Format settings, CABAC           : No
Format settings, ReFrames        : 1 frame
Codec ID                         : avc1
Codec ID/Info                    : Advanced Video Coding
Duration                         : 56mn 9s
Bit rate mode                    : Variable
Bit rate                         : 700 Kbps
Width                            : 580 pixels
Height                           : 328 pixels
Display aspect ratio             : 16:9
Frame rate mode                  : Constant
Frame rate                       : 25.000 fps
Color space                      : YUV
Chroma subsampling               : 4:2:0
Bit depth                        : 8 bits
Scan type                        : Progressive
Bits/(Pixel*Frame)               : 0.147
Stream size                      : 281 MiB (86%)
Writing library                  : x264 core 98
Encoding settings                : cabac=0 / ref=1 / deblock=1:0:0 / analyse=0x1:0x111 / me=umh / subme=8 / psy=1 / psy_rd=1.00:0.00 / mixed_ref=0 / me_range=16 / chroma_me=1 / trellis=0 / 8x8dct=0 / cqm=0 / deadzone=21,11 / fast_pskip=1 / chroma_qp_offset=-2 / threads=1 / sliced_threads=0 / nr=0 / decimate=1 / interlaced=0 / constrained_intra=0 / bframes=0 / weightp=0 / keyint=250 / keyint_min=50 / scenecut=40 / intra_refresh=0 / rc_lookahead=40 / rc=2pass / mbtree=1 / bitrate=700 / ratetol=1.0 / qcomp=0.60 / qpmin=10 / qpmax=51 / qpstep=4 / cplxblur=20.0 / qblur=0.5 / vbv_maxrate=10000 / vbv_bufsize=10000 / ip_ratio=1.41 / aq=1:1.00 / nal_hrd=none
Language                         : English
Tagged date                      : UTC 2010-07-22 04:01:03
Session 4 Part 1
Продолжительность: 01:03:59
Качество : DVDRip
Формат: MP4
Видео: Video: MPEG4 Video (H264) 580x328 25.00fps [Video]
Аудио: Audio: AAC 48000Hz stereo 1536Kbps [Audio]
Фокусники: Mike Caveney,Luis de Matos,Miguel Angel Gea,Paulino Gil
Секцию 4, второго дня конференции ведёт Mike Caveney (United States)
В 01:52 увлекательный рассказ от Luis de Matos (Portugal) о Flypaper... О том как работать на телевидении. Разобраны как общие, так и очень тонкие моменты.
В 24:16 мы увидим лекцию от Topas (Germany), под названием Idea Society... Всё о формировании новых трюков и идей в магии. В конце он покажет "игру" на картах... =)
В 39:50 начнётся секция фотографий от Online зрителей по всему миру.
В 41:29 выступление Miguel Angel Gea (Spain), покажет нам отличную классическую Close Up работу с монетками.
В 46:02 лекция от Paulino Gil (Spain), под названием Magic Goes Public. Огромная работа была проделана для этой работы.
Код:

General
Complete name                    : EMC - Session 4 Part 1.mp4
Format                           : MPEG-4
Format profile                   : Base Media
Codec ID                         : isom
File size                        : 370 MiB
Duration                         : 1h 3mn
Overall bit rate                 : 809 Kbps
Writing application              : Lavf52.68.0
Video
ID                               : 1
Format                           : AVC
Format/Info                      : Advanced Video Codec
Format profile                   :
Format settings, CABAC           : No
Format settings, ReFrames        : 1 frame
Codec ID                         : avc1
Codec ID/Info                    : Advanced Video Coding
Duration                         : 1h 3mn
Bit rate mode                    : Variable
Bit rate                         : 700 Kbps
Width                            : 580 pixels
Height                           : 328 pixels
Display aspect ratio             : 16:9
Frame rate mode                  : Constant
Frame rate                       : 25.000 fps
Color space                      : YUV
Chroma subsampling               : 4:2:0
Bit depth                        : 8 bits
Scan type                        : Progressive
Bits/(Pixel*Frame)               : 0.147
Stream size                      : 320 MiB (86%)
Writing library                  : x264 core 98
Encoding settings                : cabac=0 / ref=1 / deblock=1:0:0 / analyse=0x1:0x111 / me=umh / subme=8 / psy=1 / psy_rd=1.00:0.00 / mixed_ref=0 / me_range=16 / chroma_me=1 / trellis=0 / 8x8dct=0 / cqm=0 / deadzone=21,11 / fast_pskip=1 / chroma_qp_offset=-2 / threads=1 / sliced_threads=0 / nr=0 / decimate=1 / interlaced=0 / constrained_intra=0 / bframes=0 / weightp=0 / keyint=250 / keyint_min=50 / scenecut=40 / intra_refresh=0 / rc_lookahead=40 / rc=2pass / mbtree=1 / bitrate=700 / ratetol=1.0 / qcomp=0.60 / qpmin=10 / qpmax=51 / qpstep=4 / cplxblur=20.0 / qblur=0.5 / vbv_maxrate=10000 / vbv_bufsize=10000 / ip_ratio=1.41 / aq=1:1.00 / nal_hrd=none
Language                         : English
Tagged date                      : UTC 2010-07-21 23:30:04
Audio
ID                               : 2
Format                           : AAC
Format/Info                      : Advanced Audio Codec
Format version                   : Version 4
Format profile                   : LC
Codec ID                         : 40
Duration                         : 1h 3mn
Bit rate mode                    : Variable
Bit rate                         : 107 Kbps
Channel(s)                       : 2 channels
Channel positions                : Front: L R
Sampling rate                    : 48.0 KHz
Stream size                      : 48.9 MiB (13%)
Language                         : English
Tagged date                      : UTC 2010-07-21 23:30:04
Session 4 Part 2
Продолжительность: 00:56:40
Качество : DVDRip
Формат: MP4
Видео: Video: MPEG4 Video (H264) 580x328 25.00fps [Video]
Аудио: Audio: AAC 48000Hz stereo 1536Kbps [Audio]
Код:

General
Complete name                    : EMC - Session 4 Part 2.mp4
Format                           : MPEG-4
Format profile                   : Base Media
Codec ID                         : isom
File size                        : 327 MiB
Duration                         : 56mn 40s
Overall bit rate                 : 807 Kbps
Writing application              : Lavf52.68.0
Video
ID                               : 1
Format                           : AVC
Format/Info                      : Advanced Video Codec
Format profile                   :
Format settings, CABAC           : No
Format settings, ReFrames        : 1 frame
Codec ID                         : avc1
Codec ID/Info                    : Advanced Video Coding
Duration                         : 56mn 40s
Bit rate mode                    : Variable
Bit rate                         : 700 Kbps
Width                            : 580 pixels
Height                           : 328 pixels
Display aspect ratio             : 16:9
Frame rate mode                  : Constant
Frame rate                       : 25.000 fps
Color space                      : YUV
Chroma subsampling               : 4:2:0
Bit depth                        : 8 bits
Scan type                        : Progressive
Bits/(Pixel*Frame)               : 0.147
Stream size                      : 284 MiB (87%)
Writing library                  : x264 core 98
Encoding settings                : cabac=0 / ref=1 / deblock=1:0:0 / analyse=0x1:0x111 / me=umh / subme=8 / psy=1 / psy_rd=1.00:0.00 / mixed_ref=0 / me_range=16 / chroma_me=1 / trellis=0 / 8x8dct=0 / cqm=0 / deadzone=21,11 / fast_pskip=1 / chroma_qp_offset=-2 / threads=1 / sliced_threads=0 / nr=0 / decimate=1 / interlaced=0 / constrained_intra=0 / bframes=0 / weightp=0 / keyint=250 / keyint_min=50 / scenecut=40 / intra_refresh=0 / rc_lookahead=40 / rc=2pass / mbtree=1 / bitrate=700 / ratetol=1.0 / qcomp=0.60 / qpmin=10 / qpmax=51 / qpstep=4 / cplxblur=20.0 / qblur=0.5 / vbv_maxrate=10000 / vbv_bufsize=10000 / ip_ratio=1.41 / aq=1:1.00 / nal_hrd=none
Language                         : English
Tagged date                      : UTC 2010-07-22 19:54:34
Audio
ID                               : 2
Format                           : AAC
Format/Info                      : Advanced Audio Codec
Format version                   : Version 4
Format profile                   : LC
Codec ID                         : 40
Duration                         : 56mn 40s
Bit rate mode                    : Variable
Bit rate                         : 104 Kbps
Channel(s)                       : 2 channels
Channel positions                : Front: L R
Sampling rate                    : 48.0 KHz
Stream size                      : 42.4 MiB (13%)
Language                         : English
Tagged date                      : UTC 2010-07-22 19:54:34
Session 5 Part 1
Продолжительность: 00:55:02
Качество : DVDRip
Формат: MP4
Видео: Video: MPEG4 Video (H264) 580x328 25.00fps [Video]
Аудио: Audio: AAC 48000Hz stereo 1536Kbps [Audio]
Код:

General
Complete name                    : EMC - Session 5 Part 1.mp4
Format                           : MPEG-4
Format profile                   : Base Media
Codec ID                         : isom
File size                        : 318 MiB
Duration                         : 55mn 2s
Overall bit rate                 : 807 Kbps
Writing application              : Lavf52.68.0
Video
ID                               : 1
Format                           : AVC
Format/Info                      : Advanced Video Codec
Format profile                   :
Format settings, CABAC           : No
Format settings, ReFrames        : 1 frame
Codec ID                         : avc1
Codec ID/Info                    : Advanced Video Coding
Duration                         : 55mn 2s
Bit rate mode                    : Variable
Bit rate                         : 700 Kbps
Width                            : 580 pixels
Height                           : 328 pixels
Display aspect ratio             : 16:9
Frame rate mode                  : Constant
Frame rate                       : 25.000 fps
Color space                      : YUV
Chroma subsampling               : 4:2:0
Bit depth                        : 8 bits
Scan type                        : Progressive
Bits/(Pixel*Frame)               : 0.147
Stream size                      : 276 MiB (87%)
Writing library                  : x264 core 98
Encoding settings                : cabac=0 / ref=1 / deblock=1:0:0 / analyse=0x1:0x111 / me=umh / subme=8 / psy=1 / psy_rd=1.00:0.00 / mixed_ref=0 / me_range=16 / chroma_me=1 / trellis=0 / 8x8dct=0 / cqm=0 / deadzone=21,11 / fast_pskip=1 / chroma_qp_offset=-2 / threads=1 / sliced_threads=0 / nr=0 / decimate=1 / interlaced=0 / constrained_intra=0 / bframes=0 / weightp=0 / keyint=250 / keyint_min=50 / scenecut=40 / intra_refresh=0 / rc_lookahead=40 / rc=2pass / mbtree=1 / bitrate=700 / ratetol=1.0 / qcomp=0.60 / qpmin=10 / qpmax=51 / qpstep=4 / cplxblur=20.0 / qblur=0.5 / vbv_maxrate=10000 / vbv_bufsize=10000 / ip_ratio=1.41 / aq=1:1.00 / nal_hrd=none
Language                         : English
Tagged date                      : UTC 2010-07-22 19:31:25
Audio
ID                               : 2
Format                           : AAC
Format/Info                      : Advanced Audio Codec
Format version                   : Version 4
Format profile                   : LC
Codec ID                         : 40
Duration                         : 55mn 2s
Bit rate mode                    : Variable
Bit rate                         : 104 Kbps
Channel(s)                       : 2 channels
Channel positions                : Front: L R
Sampling rate                    : 48.0 KHz
Stream size                      : 41.0 MiB (13%)
Language                         : English
Tagged date                      : UTC 2010-07-22 19:31:25
Session 5 Part 2
Продолжительность: 01:04:49
Качество : DVDRip
Формат: MP4
Видео: Video: MPEG4 Video (H264) 580x328 25.00fps [Video]
Аудио: Audio: AAC 48000Hz stereo 1536Kbps [Audio]
Код:

General
Complete name                    : EMC - Session 5 Part 2.mp4
Format                           : MPEG-4
Format profile                   : Base Media
Codec ID                         : isom
File size                        : 374 MiB
Duration                         : 1h 4mn
Overall bit rate                 : 806 Kbps
Writing application              : Lavf52.68.0
Video
ID                               : 1
Format                           : AVC
Format/Info                      : Advanced Video Codec
Format profile                   :
Format settings, CABAC           : No
Format settings, ReFrames        : 1 frame
Codec ID                         : avc1
Codec ID/Info                    : Advanced Video Coding
Duration                         : 1h 4mn
Bit rate mode                    : Variable
Bit rate                         : 700 Kbps
Width                            : 580 pixels
Height                           : 328 pixels
Display aspect ratio             : 16:9
Frame rate mode                  : Constant
Frame rate                       : 25.000 fps
Color space                      : YUV
Chroma subsampling               : 4:2:0
Bit depth                        : 8 bits
Scan type                        : Progressive
Bits/(Pixel*Frame)               : 0.147
Stream size                      : 325 MiB (87%)
Writing library                  : x264 core 98
Encoding settings                : cabac=0 / ref=1 / deblock=1:0:0 / analyse=0x1:0x111 / me=umh / subme=8 / psy=1 / psy_rd=1.00:0.00 / mixed_ref=0 / me_range=16 / chroma_me=1 / trellis=0 / 8x8dct=0 / cqm=0 / deadzone=21,11 / fast_pskip=1 / chroma_qp_offset=-2 / threads=1 / sliced_threads=0 / nr=0 / decimate=1 / interlaced=0 / constrained_intra=0 / bframes=0 / weightp=0 / keyint=250 / keyint_min=50 / scenecut=40 / intra_refresh=0 / rc_lookahead=40 / rc=2pass / mbtree=1 / bitrate=700 / ratetol=1.0 / qcomp=0.60 / qpmin=10 / qpmax=51 / qpstep=4 / cplxblur=20.0 / qblur=0.5 / vbv_maxrate=10000 / vbv_bufsize=10000 / ip_ratio=1.41 / aq=1:1.00 / nal_hrd=none
Language                         : English
Tagged date                      : UTC 2010-07-22 22:19:57
Audio
ID                               : 2
Format                           : AAC
Format/Info                      : Advanced Audio Codec
Format version                   : Version 4
Format profile                   : LC
Codec ID                         : 40
Duration                         : 1h 4mn
Bit rate mode                    : Variable
Bit rate                         : 104 Kbps
Channel(s)                       : 2 channels
Channel positions                : Front: L R
Sampling rate                    : 48.0 KHz
Stream size                      : 48.1 MiB (13%)
Language                         : English
Tagged date                      : UTC 2010-07-22 22:19:57
Session 6 Part 1
Продолжительность: 00:51:45
Качество : DVDRip
Формат: MP4
Видео: Video: MPEG4 Video (H264) 580x328 25.00fps [Video]
Аудио: Audio: AAC 48000Hz stereo 1536Kbps [Audio]
Код:

General
Complete name                    : EMC - Session 6 Part 1.mp4
Format                           : MPEG-4
Format profile                   : Base Media
Codec ID                         : isom
File size                        : 300 MiB
Duration                         : 51mn 45s
Overall bit rate                 : 810 Kbps
Writing application              : Lavf52.68.0
Video
ID                               : 1
Format                           : AVC
Format/Info                      : Advanced Video Codec
Format profile                   :
Format settings, CABAC           : No
Format settings, ReFrames        : 1 frame
Codec ID                         : avc1
Codec ID/Info                    : Advanced Video Coding
Duration                         : 51mn 45s
Bit rate mode                    : Variable
Bit rate                         : 700 Kbps
Width                            : 580 pixels
Height                           : 328 pixels
Display aspect ratio             : 16:9
Frame rate mode                  : Constant
Frame rate                       : 25.000 fps
Color space                      : YUV
Chroma subsampling               : 4:2:0
Bit depth                        : 8 bits
Scan type                        : Progressive
Bits/(Pixel*Frame)               : 0.147
Stream size                      : 259 MiB (86%)
Writing library                  : x264 core 98
Encoding settings                : cabac=0 / ref=1 / deblock=1:0:0 / analyse=0x1:0x111 / me=umh / subme=8 / psy=1 / psy_rd=1.00:0.00 / mixed_ref=0 / me_range=16 / chroma_me=1 / trellis=0 / 8x8dct=0 / cqm=0 / deadzone=21,11 / fast_pskip=1 / chroma_qp_offset=-2 / threads=1 / sliced_threads=0 / nr=0 / decimate=1 / interlaced=0 / constrained_intra=0 / bframes=0 / weightp=0 / keyint=250 / keyint_min=50 / scenecut=40 / intra_refresh=0 / rc_lookahead=40 / rc=2pass / mbtree=1 / bitrate=700 / ratetol=1.0 / qcomp=0.60 / qpmin=10 / qpmax=51 / qpstep=4 / cplxblur=20.0 / qblur=0.5 / vbv_maxrate=10000 / vbv_bufsize=10000 / ip_ratio=1.41 / aq=1:1.00 / nal_hrd=none
Language                         : English
Tagged date                      : UTC 2010-07-23 01:55:07
Audio
ID                               : 2
Format                           : AAC
Format/Info                      : Advanced Audio Codec
Format version                   : Version 4
Format profile                   : LC
Codec ID                         : 40
Duration                         : 51mn 45s
Bit rate mode                    : Variable
Bit rate                         : 107 Kbps
Channel(s)                       : 2 channels
Channel positions                : Front: L R
Sampling rate                    : 48.0 KHz
Stream size                      : 39.5 MiB (13%)
Language                         : English
Tagged date                      : UTC 2010-07-23 01:55:07
Session 6 Part 2
Продолжительность: 01:07:40
Качество : DVDRip
Формат: MP4
Видео: Video: MPEG4 Video (H264) 580x328 25.00fps [Video]
Аудио: Audio: AAC 48000Hz stereo 1536Kbps [Audio]
Код:

General
Complete name                    : EMC - Session 6 Part 2.mp4
Format                           : MPEG-4
Format profile                   : Base Media
Codec ID                         : isom
File size                        : 391 MiB
Duration                         : 1h 7mn
Overall bit rate                 : 807 Kbps
Writing application              : Lavf52.68.0
Video
ID                               : 1
Format                           : AVC
Format/Info                      : Advanced Video Codec
Format profile                   :
Format settings, CABAC           : No
Format settings, ReFrames        : 1 frame
Codec ID                         : avc1
Codec ID/Info                    : Advanced Video Coding
Duration                         : 1h 7mn
Bit rate mode                    : Variable
Bit rate                         : 700 Kbps
Width                            : 580 pixels
Height                           : 328 pixels
Display aspect ratio             : 16:9
Frame rate mode                  : Constant
Frame rate                       : 25.000 fps
Color space                      : YUV
Chroma subsampling               : 4:2:0
Bit depth                        : 8 bits
Scan type                        : Progressive
Bits/(Pixel*Frame)               : 0.147
Stream size                      : 339 MiB (87%)
Writing library                  : x264 core 98
Encoding settings                : cabac=0 / ref=1 / deblock=1:0:0 / analyse=0x1:0x111 / me=umh / subme=8 / psy=1 / psy_rd=1.00:0.00 / mixed_ref=0 / me_range=16 / chroma_me=1 / trellis=0 / 8x8dct=0 / cqm=0 / deadzone=21,11 / fast_pskip=1 / chroma_qp_offset=-2 / threads=1 / sliced_threads=0 / nr=0 / decimate=1 / interlaced=0 / constrained_intra=0 / bframes=0 / weightp=0 / keyint=250 / keyint_min=50 / scenecut=40 / intra_refresh=0 / rc_lookahead=40 / rc=2pass / mbtree=1 / bitrate=700 / ratetol=1.0 / qcomp=0.60 / qpmin=10 / qpmax=51 / qpstep=4 / cplxblur=20.0 / qblur=0.5 / vbv_maxrate=10000 / vbv_bufsize=10000 / ip_ratio=1.41 / aq=1:1.00 / nal_hrd=none
Language                         : English
Tagged date                      : UTC 2010-07-23 04:02:07
Audio
ID                               : 2
Format                           : AAC
Format/Info                      : Advanced Audio Codec
Format version                   : Version 4
Format profile                   : LC
Codec ID                         : 40
Duration                         : 1h 7mn
Bit rate mode                    : Variable
Bit rate                         : 105 Kbps
Channel(s)                       : 2 channels
Channel positions                : Front: L R
Sampling rate                    : 48.0 KHz
Stream size                      : 50.7 MiB (13%)
Language                         : English
Tagged date                      : UTC 2010-07-23 04:02:07
Session 7 Part 1
Продолжительность: 01:07:20
Качество : DVDRip
Формат: MP4
Видео: Video: MPEG4 Video (H264) 580x328 25.00fps [Video]
Аудио: Audio: AAC 48000Hz stereo 1536Kbps [Audio]
Код:

General
Complete name                    :EMC - Session 7 Part 1.mp4
Format                           : MPEG-4
Format profile                   : Base Media
Codec ID                         : isom
File size                        : 389 MiB
Duration                         : 1h 7mn
Overall bit rate                 : 808 Kbps
Writing application              : Lavf52.68.0
Video
ID                               : 1
Format                           : AVC
Format/Info                      : Advanced Video Codec
Format profile                   :
Format settings, CABAC           : No
Format settings, ReFrames        : 1 frame
Codec ID                         : avc1
Codec ID/Info                    : Advanced Video Coding
Duration                         : 1h 7mn
Bit rate mode                    : Variable
Bit rate                         : 700 Kbps
Width                            : 580 pixels
Height                           : 328 pixels
Display aspect ratio             : 16:9
Frame rate mode                  : Constant
Frame rate                       : 25.000 fps
Color space                      : YUV
Chroma subsampling               : 4:2:0
Bit depth                        : 8 bits
Scan type                        : Progressive
Bits/(Pixel*Frame)               : 0.147
Stream size                      : 337 MiB (87%)
Writing library                  : x264 core 98
Encoding settings                : cabac=0 / ref=1 / deblock=1:0:0 / analyse=0x1:0x111 / me=umh / subme=8 / psy=1 / psy_rd=1.00:0.00 / mixed_ref=0 / me_range=16 / chroma_me=1 / trellis=0 / 8x8dct=0 / cqm=0 / deadzone=21,11 / fast_pskip=1 / chroma_qp_offset=-2 / threads=1 / sliced_threads=0 / nr=0 / decimate=1 / interlaced=0 / constrained_intra=0 / bframes=0 / weightp=0 / keyint=250 / keyint_min=50 / scenecut=40 / intra_refresh=0 / rc_lookahead=40 / rc=2pass / mbtree=1 / bitrate=700 / ratetol=1.0 / qcomp=0.60 / qpmin=10 / qpmax=51 / qpstep=4 / cplxblur=20.0 / qblur=0.5 / vbv_maxrate=10000 / vbv_bufsize=10000 / ip_ratio=1.41 / aq=1:1.00 / nal_hrd=none
Language                         : English
Tagged date                      : UTC 2010-07-23 05:25:49
Audio
ID                               : 2
Format                           : AAC
Format/Info                      : Advanced Audio Codec
Format version                   : Version 4
Format profile                   : LC
Codec ID                         : 40
Duration                         : 1h 7mn
Bit rate mode                    : Variable
Bit rate                         : 105 Kbps
Channel(s)                       : 2 channels
Channel positions                : Front: L R
Sampling rate                    : 48.0 KHz
Stream size                      : 50.7 MiB (13%)
Language                         : English
Tagged date                      : UTC 2010-07-23 05:25:49
Session 7 Part 2
Продолжительность: 00:52:51
Качество : DVDRip
Формат: MP4
Видео: Video: MPEG4 Video (H264) 580x328 25.00fps [Video]
Аудио: Audio: AAC 48000Hz stereo 1536Kbps [Audio]
Код:

General
Complete name                    : EMC - Session 7 Part 2.mp4
Format                           : MPEG-4
Format profile                   : Base Media
Codec ID                         : isom
File size                        : 303 MiB
Duration                         : 52mn 51s
Overall bit rate                 : 803 Kbps
Writing application              : Lavf52.68.0
Video
ID                               : 1
Format                           : AVC
Format/Info                      : Advanced Video Codec
Format profile                   :
Format settings, CABAC           : No
Format settings, ReFrames        : 1 frame
Codec ID                         : avc1
Codec ID/Info                    : Advanced Video Coding
Duration                         : 52mn 51s
Bit rate mode                    : Variable
Bit rate                         : 700 Kbps
Width                            : 580 pixels
Height                           : 328 pixels
Display aspect ratio             : 16:9
Frame rate mode                  : Constant
Frame rate                       : 25.000 fps
Color space                      : YUV
Chroma subsampling               : 4:2:0
Bit depth                        : 8 bits
Scan type                        : Progressive
Bits/(Pixel*Frame)               : 0.147
Stream size                      : 265 MiB (87%)
Writing library                  : x264 core 98
Encoding settings                : cabac=0 / ref=1 / deblock=1:0:0 / analyse=0x1:0x111 / me=umh / subme=8 / psy=1 / psy_rd=1.00:0.00 / mixed_ref=0 / me_range=16 / chroma_me=1 / trellis=0 / 8x8dct=0 / cqm=0 / deadzone=21,11 / fast_pskip=1 / chroma_qp_offset=-2 / threads=1 / sliced_threads=0 / nr=0 / decimate=1 / interlaced=0 / constrained_intra=0 / bframes=0 / weightp=0 / keyint=250 / keyint_min=50 / scenecut=40 / intra_refresh=0 / rc_lookahead=40 / rc=2pass / mbtree=1 / bitrate=700 / ratetol=1.0 / qcomp=0.60 / qpmin=10 / qpmax=51 / qpstep=4 / cplxblur=20.0 / qblur=0.5 / vbv_maxrate=10000 / vbv_bufsize=10000 / ip_ratio=1.41 / aq=1:1.00 / nal_hrd=none
Language                         : English
Tagged date                      : UTC 2010-07-23 06:23:49
Audio
ID                               : 2
Format                           : AAC
Format/Info                      : Advanced Audio Codec
Format version                   : Version 4
Format profile                   : LC
Codec ID                         : 40
Duration                         : 52mn 51s
Bit rate mode                    : Variable
Bit rate                         : 100 Kbps
Channel(s)                       : 2 channels
Channel positions                : Front: L R
Sampling rate                    : 48.0 KHz
Stream size                      : 37.9 MiB (12%)
Language                         : English
Tagged date                      : UTC 2010-07-23 06:23:49
Session 8 Part 1
Продолжительность: 00:51:39
Качество : DVDRip
Формат: MP4
Видео: Video: MPEG4 Video (H264) 580x328 25.00fps [Video]
Аудио: Audio: AAC 48000Hz stereo 1536Kbps [Audio]
General
Complete name : EMC - Session 8 Part 1.mp4
Format : MPEG-4
Format profile : Base Media
Codec ID : isom
File size : 299 MiB
Duration : 51mn 39s
Overall bit rate : 810 Kbps
Writing application : Lavf52.68.0
Video
ID : 1
Format : AVC
Format/Info : Advanced Video Codec
Format profile :
Format settings, CABAC : No
Format settings, ReFrames : 1 frame
Format settings, GOP : M=1, N=2
Codec ID : avc1
Codec ID/Info : Advanced Video Coding
Duration : 51mn 39s
Bit rate mode : Variable
Bit rate : 700 Kbps
Width : 580 pixels
Height : 328 pixels
Display aspect ratio : 16:9
Frame rate mode : Constant
Frame rate : 25.000 fps
Color space : YUV
Chroma subsampling : 4:2:0
Bit depth : 8 bits
Scan type : Progressive
Bits/(Pixel*Frame) : 0.147
Stream size : 259 MiB (86%)
Writing library : x264 core 98
Encoding settings : cabac=0 / ref=1 / deblock=1:0:0 / analyse=0x1:0x111 / me=umh / subme=8 / psy=1 / psy_rd=1.00:0.00 / mixed_ref=0 / me_range=16 / chroma_me=1 / trellis=0 / 8x8dct=0 / cqm=0 / deadzone=21,11 / fast_pskip=1 / chroma_qp_offset=-2 / threads=1 / sliced_threads=0 / nr=0 / decimate=1 / interlaced=0 / constrained_intra=0 / bframes=0 / weightp=0 / keyint=250 / keyint_min=50 / scenecut=40 / intra_refresh=0 / rc_lookahead=40 / rc=2pass / mbtree=1 / bitrate=700 / ratetol=1.0 / qcomp=0.60 / qpmin=10 / qpmax=51 / qpstep=4 / cplxblur=20.0 / qblur=0.5 / vbv_maxrate=10000 / vbv_bufsize=10000 / ip_ratio=1.41 / aq=1:1.00 / nal_hrd=none
Language : English
Tagged date : UTC 2010-07-23 08:02:40
Audio
ID : 2
Format : AAC
Format/Info : Advanced Audio Codec
Format version : Version 4
Format profile : LC
Codec ID : 40
Duration : 51mn 39s
Bit rate mode : Variable
Bit rate : 107 Kbps
Channel(s) : 2 channels
Channel positions : Front: L R
Sampling rate : 48.0 KHz
Stream size : 39.5 MiB (13%)
Language : English
Tagged date : UTC 2010-07-23 08:02:40
Session 8 Part 2
Продолжительность: 01:07:35
Качество : DVDRip
Формат: MP4
Видео: Video: MPEG4 Video (H264) 580x328 25.00fps [Video]
Аудио: Audio: AAC 48000Hz stereo 1536Kbps [Audio]
Код:

General
Complete name                    : EMC - Session 8 Part 2.mp4
Format                           : MPEG-4
Format profile                   : Base Media
Codec ID                         : isom
File size                        : 390 MiB
Duration                         : 1h 7mn
Overall bit rate                 : 806 Kbps
Writing application              : Lavf52.68.0
Video
ID                               : 1
Format                           : AVC
Format/Info                      : Advanced Video Codec
Format profile                   :
Format settings, CABAC           : No
Format settings, ReFrames        : 1 frame
Codec ID                         : avc1
Codec ID/Info                    : Advanced Video Coding
Duration                         : 1h 7mn
Bit rate mode                    : Variable
Bit rate                         : 700 Kbps
Width                            : 580 pixels
Height                           : 328 pixels
Display aspect ratio             : 16:9
Frame rate mode                  : Constant
Frame rate                       : 25.000 fps
Color space                      : YUV
Chroma subsampling               : 4:2:0
Bit depth                        : 8 bits
Scan type                        : Progressive
Bits/(Pixel*Frame)               : 0.147
Stream size                      : 338 MiB (87%)
Writing library                  : x264 core 98 r0+1643 0cd5d69
Encoding settings                : cabac=0 / ref=1 / deblock=1:0:0 / analyse=0x1:0x111 / me=umh / subme=8 / psy=1 / psy_rd=1.00:0.00 / mixed_ref=0 / me_range=16 / chroma_me=1 / trellis=0 / 8x8dct=0 / cqm=0 / deadzone=21,11 / fast_pskip=1 / chroma_qp_offset=-2 / threads=1 / sliced_threads=0 / nr=0 / decimate=1 / interlaced=0 / constrained_intra=0 / bframes=0 / weightp=0 / keyint=250 / keyint_min=50 / scenecut=40 / intra_refresh=0 / rc_lookahead=40 / rc=2pass / mbtree=1 / bitrate=700 / ratetol=1.0 / qcomp=0.60 / qpmin=10 / qpmax=51 / qpstep=4 / cplxblur=20.0 / qblur=0.5 / vbv_maxrate=10000 / vbv_bufsize=10000 / ip_ratio=1.41 / aq=1:1.00 / nal_hrd=none
Language                         : English
Tagged date                      : UTC 2010-07-23 10:46:19
Audio
ID                               : 2
Format                           : AAC
Format/Info                      : Advanced Audio Codec
Format version                   : Version 4
Format profile                   : LC
Codec ID                         : 40
Duration                         : 1h 7mn
Bit rate mode                    : Variable
Bit rate                         : 104 Kbps
Channel(s)                       : 2 channels
Channel positions                : Front: L R
Sampling rate                    : 48.0 KHz
Stream size                      : 50.2 MiB (13%)
Language                         : English
Tagged date                      : UTC 2010-07-23 10:46:19
Session 9
Продолжительность: 01:15:42
Качество : DVDRip
Формат: MP4
Видео: Video: MPEG4 Video (H264) 580x328 25.00fps [Video]
Аудио: Audio: AAC 48000Hz stereo 1536Kbps [Audio]
Код:

General
Complete name                    : EMC - Session 9.mp4
Format                           : MPEG-4
Format profile                   : Base Media
Codec ID                         : isom
File size                        : 437 MiB
Duration                         : 1h 15mn
Overall bit rate                 : 806 Kbps
Writing application              : Lavf52.68.0
Video
ID                               : 1
Format                           : AVC
Format/Info                      : Advanced Video Codec
Format profile                   :
Format settings, CABAC           : No
Format settings, ReFrames        : 1 frame
Format settings, GOP             : M=1, N=2
Codec ID                         : avc1
Codec ID/Info                    : Advanced Video Coding
Duration                         : 1h 15mn
Bit rate mode                    : Variable
Bit rate                         : 700 Kbps
Width                            : 580 pixels
Height                           : 328 pixels
Display aspect ratio             : 16:9
Frame rate mode                  : Constant
Frame rate                       : 25.000 fps
Color space                      : YUV
Chroma subsampling               : 4:2:0
Bit depth                        : 8 bits
Scan type                        : Progressive
Bits/(Pixel*Frame)               : 0.147
Stream size                      : 379 MiB (87%)
Writing library                  : x264 core 98
Encoding settings                : cabac=0 / ref=1 / deblock=1:0:0 / analyse=0x1:0x111 / me=umh / subme=8 / psy=1 / psy_rd=1.00:0.00 / mixed_ref=0 / me_range=16 / chroma_me=1 / trellis=0 / 8x8dct=0 / cqm=0 / deadzone=21,11 / fast_pskip=1 / chroma_qp_offset=-2 / threads=1 / sliced_threads=0 / nr=0 / decimate=1 / interlaced=0 / constrained_intra=0 / bframes=0 / weightp=0 / keyint=250 / keyint_min=50 / scenecut=40 / intra_refresh=0 / rc_lookahead=40 / rc=2pass / mbtree=1 / bitrate=700 / ratetol=1.0 / qcomp=0.60 / qpmin=10 / qpmax=51 / qpstep=4 / cplxblur=20.0 / qblur=0.5 / vbv_maxrate=10000 / vbv_bufsize=10000 / ip_ratio=1.41 / aq=1:1.00 / nal_hrd=none
Language                         : English
Tagged date                      : UTC 2010-07-23 10:48:04
Audio
ID                               : 2
Format                           : AAC
Format/Info                      : Advanced Audio Codec
Format version                   : Version 4
Format profile                   : LC
Codec ID                         : 40
Duration                         : 1h 15mn
Bit rate mode                    : Variable
Bit rate                         : 103 Kbps
Channel(s)                       : 2 channels
Channel positions                : Front: L R
Sampling rate                    : 48.0 KHz
Stream size                      : 56.0 MiB (13%)
Language                         : English
Tagged date                      : UTC 2010-07-23 10:48:04
BONUS Material Max Maven Res-Cue
Продолжительность: 0:11:53
Качество : DVDRip
Формат: MP4
Видео: Video: MPEG4 Video (H264) 580x328 25.00fps [Video]
Аудио: Audio: AAC 48000Hz stereo 1536Kbps [Audio]
Фокусники: Max Maven

Ну начинается...Менее дня раздача существует, а я уже получаю гневные письма.
Во первых - нет, я не скачал этот материал с закрытого трекера фокусников.
Администрация того трекера может легко это проверить.
Мне кажется, что именно такие раздачи должны смотреть "дети". Под "детьми" имеется в виду начинающие фокусники, которые смотрят семинары и во многом мешают профессиональным фокусникам.
Как же они мешают? Ну для начала - они раскрывают наши секреты зрителям... Это самое меньшее из зол.
Они выступают где-то, говоря что они профессиональные фокусники. Поэтому, после не очень эффектного выступления - фокусников больше не зовут.
Ведь зритель видя первый раз фокусника, думает что все остальные точно такие-же.
Вот это уже хуже...
Конечно - стоят на месте было бы проще, еслиб остальные не шли вперёд...так мы всегда будем первыми)
Но именно эта раздача и поможет пониманию тонких моментов.
Я считаю, что те, кто не поймёт что в этой раздаче особенного - те не принесут вреда фокусам и иллюзиям.
А те, кто оценит, кто проникнится этим материалом - они получат огромный опыт и развитие в этом направлении.
То есть бывшие "дети" смогут быть на шаг ближе к профессионалам.
По сути - посмотреть и усвоить этот материал, намного важнее для фокусника, чем пересмотреть и пытаться исполнить что-нибудь от Jason England или Lennart Green,хотя эти раздачи есть здесь, на трекере..
Потому что техники, даже отлично отточенной мало.
Мне кажется, этот материал лучше популяризировать.
Эта раздача и так на вес золота, но когда тут будут Bonus Material - будет совсем здорово.
Так что давайте развиваться и работать над собой.
Всем спасибо за внимание.

Постеры

Соцсети

 

Статистика

Автор: asder
Добавлен: 01 май 2012, 09:49
Размер: 5.58 ГБ
Размер: 5 993 514 408 байт
Сидеров: 8
Личеров: 6
Скачали: 0
Здоровье: 100%
Раздающих: 100%
Изменил: Stepan (02 ноя 2012, 23:20)
Скорость скачивания: 0 байт/сек
Скорость раздачи: 0 байт/сек
Последний сидер: 1 месяц 17 дней 6 часов 13 минут 4 секунды назад
Последний личер: 1 месяц 17 дней 6 часов 13 минут 4 секунды назад
Приватный: Нет (DHT включён)
Скачать торрент
Скачать торрент
[ Размер 30.09 КБ / Просмотров 7 ]

Поделиться


Вернуться в Фокусы и трюки