Видео


Сообщение

Видео Занимательные фокусы (Практический курс видеоуроков по фокусам) [2009 г.] Обучающее видео и обучение иностранным языкам 

Сообщение Tutorial » 05 май 2012, 20:00



Занимательные фокусы





Год выпуска : 2009 год

Жанр : Полезные программы / Хобби

Разработчик : Hobbydisc.ru

Издательство: Новый диск

Язык интерфейса :

Язык озвучки :



- Операционная система: Microsoft® Windows® XP SP2 / Vista или Mac OS 10.4;
- Процессор : Intel® Pentium® 100 МГц;
- Видео-карта: Разрешение экрана 800х600;

- Для того чтобы посмотреть видеоролики и попробовать пофокусничать, достаточно иметь пульт и DVD-проигрыватель!
- или - ПК с DVD-ROM и программой для просмотра DVD-Video, например CyberLink PowerDVD




      Развлечь гостей и весело провести время с детьми можно, показывая им фокусы! Этот диск содержит 43 видеоурока, а также фото и описания, которые помогут и вам стать настоящим волшебником!

      Вам только нужно запустить диск, выбрать любой из 43 несложных по исполнению фокусов и попробовать повторить его, используя подручные средства. В удобной программной оболочке диска каждый ролик сопровождается текстовым описанием и списком необходимого реквизита.

      Эта программа пригодится не только взрослым, но и будет по-настоящему полезна для всех школьников. Ведь с помощью забавных фокусов в наглядной форме демонстрируются и объясняются законы физики! Таким образом, ребята смогут проследить, как физические законы, которые обычно им приходится бездумно заучивать, проявляются в жизни.




            General
Format : MPEG-PS
File size : 1 024 MiB
Duration : 45mn 42s
Overall bit rate : 8 063 Kbps
            Video
ID : 224 (0xE0)
Format : MPEG Video
Format version : Version 2
Format profile : Main@Main
Format settings, BVOP : Yes
Format settings, Matrix : Default
Format settings, GOP : M=3, N=12
Duration : 17mn 45s
Bit rate mode : Constant
Bit rate : 7 754 Kbps
Width : 720 pixels
Height : 576 pixels
Display aspect ratio : 4:3
Frame rate : 25.000 fps
Standard : PAL
Color space : YUV
Chroma subsampling : 4:2:0
Bit depth : 8 bits
Scan type : Interlaced
Scan order : Bottom Field First
Bits/(Pixel*Frame) : 0.748
Stream size : 979 MiB (96%)
            Audio
ID : 128 (0x80)
Format : AC-3
Format/Info : Audio Coding 3
Mode extension : CM (complete main)
Duration : 17mn 45s
Bit rate mode : Constant
Bit rate : 192 Kbps
Channel(s) : 2 channels
Channel positions : Front: L R
Sampling rate : 48.0 KHz
Bit depth : 16 bits
Video delay : -288ms
Stream size : 24.4 MiB (2%)








Постеры

Соцсети

 

Статистика

Автор: Tutorial
Добавлен: 05 май 2012, 20:01
Размер: 3.77 ГБ
Размер: 4 046 295 040 байт
Сидеров: 2
Личеров: 94
Скачали: 0
Здоровье: 2%
Раздающих: 100%
Скорость скачивания: 0 байт/сек
Скорость раздачи: 0 байт/сек
Последний сидер: 1 месяц 21 день 2 часа 6 минут 35 секунд назад
Последний личер: 27 дней 2 часа 8 минут 10 секунд назад
Приватный: Нет (DHT включён)
Скачать торрент
Скачать торрент
[ Размер 19.34 КБ / Просмотров 11 ]

Поделиться


Вернуться в Фокусы и трюки