Видео


Сообщение

Видео Специалист | Администратор серверов Linux (Ubuntu). Уровень 1-2 (2014) PCRec

Сообщение Nik » 20 окт 2014, 06:39

Специалист | Администратор серверов Linux (Ubuntu). Уровень 1-2 (2014) PCRec

Автор (режиссер): Специалист
Жанр: Обучающие видео-уроки
Продолжительность: 33:26:15
Качество видео: PCRec
Видеокодек: AVC
Битрейт видео: ~35,0 kb/s, 101 kb/s
Размер кадра: 856x688, 1280x1024
Аудиокодек: MP3
Битрейт аудио: 128 kbps, 2 Ch
Доп. материалы: Есть

Описание:
Операционная система Linux пользуется огромной популярностью – большинство серверов Интернета работают под управлением этой платформы. Задача администраторов заключается в обеспечении непрерывной работы этих решений, внедрении новых программных и аппаратных систем и автоматизация многих задач.

Комплексная программа обучения «Администратор серверов Linux» состоит из двух курсов. Вы узнаете, как конфигурировать операционную систему, заводить учетные записи, устанавливать и настраивать программное обеспечение. А кроме того, познакомитесь со всеми сетевыми возможностями Linux. Научитесь поддерживать сервисы электронной почты, Интернет-сервисы, FTP-, почтовые серверы и др.

Специалист по сетевым технологиям и управлению сетями, которые отлично знают Linux востребованы всегда. Обучитесь в Центре «Специалист» и освойте эти профессии на профессиональном уровне, подкрепленном международным сертификатом!
Linux (Ubuntu). Уровень 1. Основы администрирования и безопасности

Хотите стать системным администратором или освоить новую операционную систему Linux? На данном курсе Вы получите базовые знания по операционной системе Linux. Вы освоите особенности установки, настройки и администрирования данной ОС. Для вас прояснится отличие Linux от коммерческих операционных систем.

После данного курса Вы сможете устанавливать и настраивать операционную систему Linux, заводить учетные записи пользователей, предоставлять им регламентируемый доступ к ресурсам сервера на базе ОС Linux. Для Вас не составит труда настроить параметры локальной сети и подключение к Интернет. Вы легко будете устанавливать, обновлять и удалять ПО, а также настраивать подключение дополнительных дисков и принтеров.

Курс в первую очередь будет интересен: системным администраторам, администраторам корпоративной сети, специалистам по сетевым технологиям и дизайну сетей, администраторам корпоративных почтовых серверов, а также всем, кто стремится освоить эти профессии.

По окончании курса Вы будете уметь:

Работать в командной строке
Использовать базовые утилиты и команды
Устанавливать ОС Linux
Настраивать параметры сети и подключение к Интернет
Управлять пользователями и группами
Устанавливать ПО из исходных текстов
Устанавливать ПО из пакетов
Обновлять систему и ПО
Управлять запуском сервисов
Использовать средства мониторинга системы
Выполнять задачи по расписанию
Выполнять резервное копирование и восстановление
Настраивать графическую подсистему

Продолжительность: 16:46:35
Linux (Ubuntu). Уровень 2. Использование в качестве серверов в Internet

Хотите стать системным администратором или освоить новую операционную систему Linux? – Центр «Специалист» предлагает Вам курс «Linux (Ubuntu). Уровень 2. Использование в качестве серверов в Internet». На занятиях Вы узнаете, как эффективно применять Linux/FreeBSD в качестве серверов в интернете, при этом в полной мере используя такие преимущества Linux по сравнению с коммерческими операционными системами как высокую экономическую эффективность, мобильность, гибкость, оптимальные условия для установки СУБД.

На занятиях Вы получите необходимые знания для эффективного использования сетевых возможностей Linux/FreeBSD. Вы узнаете принцип работы как с очевидными корпоративными сервисами, такими как электронная почта, Intranet, FTP-сервер, так и с незаметными, но не менее необходимыми — шлюз в Интернет, DNS, DHCP и т.п.

Вы также научитесь профессионально использовать Unix-системы в следующих областях:

размещение порталов и Web-служб в Internet/Intranet
как шлюз между локальной сетью и интернет
в качестве
FTP-сервера
кэширующего прокси-сервера
корпоративного DNS и DHCP-сервера
сервера электронной почты
обеспечение VPN-доступа между территориально распределенными офисами
обеспечение трансляции сетевых адресов (NAT)

По окончании курса Вы будете уметь:

Использовать shell-скрипты для автоматизации рутинных задач

Настраивать следующие сервисы:
Службу точного времени
Сетевой суперсервер
Web-сервер
FTP-сервер
DNS-сервер
DHCP-сервер
Сервер электронной почты
Кэширующий proxy-сервер

Обеспечивать защиту электронной почты от вирусов
Выполнять фильтрацию спама
Настраивать Unix-систему в качестве маршрутизатора

Продолжительность: 16:39:40
Код:
Код: Выделить всё
Общее
Полное имя                               : C:\Специалист - Администратор серверов Linux (Ubuntu). Уровень 1-2. - 2014\Уровень 1\Video1\Day 1 Part 1.avi
Формат                                   : AVI
Формат/Информация                        : Audio Video Interleave
Размер файла                             : 342 Мбайт
Продолжительность                        : 4 ч. 34 м.
Общий поток                              : 174 Кбит/сек
Программа кодирования                    : BandiAviMuxer 1.0

Видео
Идентификатор                            : 0
Формат                                   : AVC
Формат/Информация                        : Advanced Video Codec
Профиль формата                          :
Параметр CABAC формата                   : Нет
Параметр ReFrames формата                : 1 кадр
Идентификатор кодека                     : H264
Продолжительность                        : 4 ч. 34 м.
Битрейт                                  : 35,0 Кбит/сек
Ширина                                   : 856 пикселей
Высота                                   : 688 пикселей
Соотношение сторон                       : 5:4
Частота кадров                           : 15,000 кадров/сек
Цветовое пространство                    : YUV
Субдискретизация насыщенности            : 4:2:0
Битовая глубина                          : 8 бит
Тип развёртки                            : Прогрессивная
Бит/(Пиксели*Кадры)                      : 0.004
Размер потока                            : 68,8 Мбайт (20%)

Аудио
Идентификатор                            : 1
Формат                                   : MPEG Audio
Версия формата                           : Version 1
Профиль формата                          : Layer 2
Идентификатор кодека                     : 50
Продолжительность                        : 4 ч. 34 м.
Вид битрейта                             : Постоянный
Битрейт                                  : 128 Кбит/сек
Каналы                                   : 2 канала
Частота                                  : 48,0 КГц
Метод сжатия                             : С потерями
Размер потока                            : 251 Мбайт (74%)
Выравнивание                             : Соединение по промежуткам
Продолжительность промежутка             : 24  мс. (0,36 видеокадр)
Время предзагрузки промежутка            : 600  мс.

Код:
Код: Выделить всё
Общее
Полное имя                               : C:\Специалист - Администратор серверов Linux (Ubuntu). Уровень 1-2. - 2014\Уровень 2\Video\Day 3 Part 2.avi
Формат                                   : AVI
Формат/Информация                        : Audio Video Interleave
Размер файла                             : 86,8 Мбайт
Продолжительность                        : 54 м.
Общий поток                              : 221 Кбит/сек
Программа кодирования                    : BandiAviMuxer 1.0
Библиотека кодирования                   : Boilsoft AVI tool build 30012/release

Видео
Идентификатор                            : 0
Формат                                   : AVC
Формат/Информация                        : Advanced Video Codec
Профиль формата                          :
Параметр CABAC формата                   : Да
Параметр ReFrames формата                : 1 кадр
Идентификатор кодека                     : H264
Продолжительность                        : 54 м.
Битрейт                                  : 86,9 Кбит/сек
Ширина                                   : 1280 пикселей
Высота                                   : 1024 пикселя
Соотношение сторон                       : 5:4
Частота кадров                           : 15,000 кадров/сек
Цветовое пространство                    : YUV
Субдискретизация насыщенности            : 4:2:0
Битовая глубина                          : 8 бит
Тип развёртки                            : Прогрессивная
Бит/(Пиксели*Кадры)                      : 0.004
Размер потока                            : 34,2 Мбайт (39%)

Аудио
Идентификатор                            : 1
Формат                                   : MPEG Audio
Версия формата                           : Version 1
Профиль формата                          : Layer 2
Идентификатор кодека                     : 50
Продолжительность                        : 54 м.
Вид битрейта                             : Постоянный
Битрейт                                  : 128 Кбит/сек
Каналы                                   : 2 канала
Частота                                  : 48,0 КГц
Метод сжатия                             : С потерями
Размер потока                            : 50,3 Мбайт (58%)
Выравнивание                             : Разделение по промежуткам
Продолжительность промежутка             : 67  мс. (1,00 видеокадр)
Время предзагрузки промежутка            : 500  мс.
Скриншоты:

Mediapartners-Google - Лучшая благодарность поделиться ссылкой с друзьями в соц. сетях

Постеры

Соцсети

 

Статистика

Автор: Nik
Добавлен: 20 окт 2014, 06:39
Размер: 3.39 ГБ
Размер: 3 640 756 121 байт
Сидеров: 1372
Личеров: 51
Скачали: 55
Здоровье: 100%
Раздающих: 100%
Скорость скачивания: 0 байт/сек
Скорость раздачи: 0 байт/сек
Последний сидер: 2 дня 6 часов 15 минут 18 секунд назад
Последний личер: 4 дня 20 часов 6 минут 7 секунд назад
Приватный: Нет (DHT включён)
Linux, Unix Скачать торрент
Скачать торрент
[ Размер 19.56 КБ / Просмотров 228 ]

Поделиться


Вернуться в Linux, Unix