Видео


Сообщение

Видео Сергей Сараханов | Мобильная фотография (2015) PCRec

Сообщение Stepan » 08 дек 2015, 01:11

Сергей Сараханов | Мобильная фотография (2015) PCRec

Автор (режиссер): Сергей Сараханов
Производство: amlab.me
Жанр: Мобилография
Продолжительность: 05:00:00
Качество видео: PCRec
Видеокодек: AVC
Битрейт видео: ~3 877 Kbps
Размер кадра: 1920x1080
Аудиокодек: AAC
Битрейт аудио: 256 Kbps, 2 channels, 48.0 KHz

Описание:
Благодаря курсу “Мобильная фотография” вы научитесь создавать потрясающие снимки, сможете легко выстраивать геометрию в кадре, подстраиваться под любые световые условия и самостоятельно регулировать их, будете уверено работать с экспозицией и управлять ей. Мы научимся избегать распространенных ошибок и снимать идеальные портреты на телефон, сохраняя теплую гармоничную тонировку кожи.
В курсе вам будет дано множество полезных советов по использованию дополнительных программ и специального оборудования для получения еще более интересных и качественных результатов Ваших съемок.

В итоге вы будете создавать великолепные фотографии, используя свои смартфоны, станете мобильным и не зависящим от обстоятельств, фотографом, что даст еще больше стимулов для совершенствования себя как профессионала, развития своего творчества или же постижения мобильной фотографии, как совершенно новой, но, столь популярной в современном мире, сфере искусства.

Вы узнаете, что такое look up, hearselight и puddlegram. Научитесь видеть кадр по-особенному, создавать динамику в снимках, находить великолепные локации для съемок и захватывающие сюжеты для них.
General
Format : MPEG-4
Format profile : Base Media / Version 2
Codec ID : mp42
File size : 236 MiB
Duration : 7mn 57s
Overall bit rate mode : Variable
Overall bit rate : 4 137 Kbps
Encoded date : UTC 2015-04-23 14:07:34
Tagged date : UTC 2015-04-23 14:07:34
Video #1
ID : 1
Format : AVC
Format/Info : Advanced Video Codec
Format profile :
Format settings, CABAC : Yes
Format settings, ReFrames : 4 frames
Codec ID : avc1
Codec ID/Info : Advanced Video Coding
Duration : 7mn 57s
Bit rate : 3 877 Kbps
Width : 1 920 pixels
Height : 1 080 pixels
Display aspect ratio : 16:9
Frame rate mode : Constant
Frame rate : 25.000 fps
Color space : YUV
Chroma subsampling : 4:2:0
Bit depth : 8 bits
Scan type : Progressive
Bits/(Pixel*Frame) : 0.075
Stream size : 221 MiB (94%)
Writing library : x264 core 144 r11 40bb568
Encoding settings : cabac=1 / ref=3 / deblock=1:0:0 / analyse=0x3:0x113 / me=hex / subme=7 / psy=1 / psy_rd=1.00:0.00 / mixed_ref=1 / me_range=16 / chroma_me=1 / trellis=1 / 8x8dct=1 / cqm=0 / deadzone=21,11 / fast_pskip=1 / chroma_qp_offset=-2 / threads=72 / lookahead_threads=8 / sliced_threads=0 / nr=0 / decimate=1 / interlaced=0 / bluray_compat=0 / stitchable=1 / constrained_intra=0 / bframes=3 / b_pyramid=2 / b_adapt=1 / b_bias=0 / direct=1 / weightb=1 / open_gop=0 / weightp=2 / keyint=infinite / keyint_min=25 / scenecut=40 / intra_refresh=0 / rc_lookahead=40 / rc=crf / mbtree=1 / crf=20.0 / qcomp=0.60 / qpmin=5 / qpmax=69 / qpstep=4 / vbv_maxrate=4950 / vbv_bufsize=13500 / crf_max=0.0 / nal_hrd=none / filler=0 / ip_ratio=1.40 / aq=1:1.00
Encoded date : UTC 2015-04-23 14:07:34
Tagged date : UTC 2015-04-23 14:07:34
Color primaries : BT.709
Transfer characteristics : BT.709
Matrix coefficients : BT.709
Audio #2
ID : 2
Format : AAC
Format/Info : Advanced Audio Codec
Format profile : LC
Codec ID : 40
Duration : 7mn 57s
Bit rate mode : Variable
Bit rate : 256 Kbps
Channel(s) : 2 channels
Channel positions : Front: L R
Sampling rate : 48.0 KHz
Compression mode : Lossy
Delay relative to video : 80ms
Stream size : 14.6 MiB (6%)
Encoded date : UTC 2015-04-23 14:07:34
Tagged date : UTC 2015-04-23 14:07:34

Скриншоты:



Время раздачи: с 09:00 до 22:00

Постеры

Соцсети

 

Статистика

Автор: Stepan
Добавлен: 08 дек 2015, 01:11
Размер: 7.43 ГБ
Размер: 7 982 852 282 байт
Сидеров: 741
Личеров: 41
Скачали: 36
Здоровье: 100%
Раздающих: 100%
Скорость скачивания: 0 байт/сек
Скорость раздачи: 0 байт/сек
Последний сидер: 29 минут 34 секунды назад
Последний личер: 12 часов 21 минуту 9 секунд назад
Приватный: Нет (DHT включён)
Фотоискусство Скачать торрент
Скачать торрент
[ Размер 32.61 КБ / Просмотров 134 ]

Поделиться


Re: Сергей Сараханов | Мобильная фотография (2015) PCRec

Сообщение ilyacore » 25 мар 2017, 12:42

не вижу ссылки на скачивание. подскажите. спасибо
Аватара пользователя
ilyacore
 


Вернуться в Фотоискусство