Видео


Сообщение

Видео С.М.Шальман | Я буду скрипачом (1997 - 2003) [DVD5]

Сообщение Nik » 15 авг 2016, 11:04

С.М.Шальман | Я буду скрипачом (1997 - 2003) [DVD5]

Автор (режиссер): С.М.Шальман
Название: Я буду скрипачом
Год выпуска: 1997 - 2003
Жанр: Музыка
Продолжительность: 18:47:53
Качество видео: DVD5
Видеокодек: MPEG2
Битрейт видео: ~2040 kb/s 25.000 FPS
Размер кадра: 720 x 576
Аудиокодек: MP2
Битрейт аудио: 160 kb/s(CBR), 2 Ch, 48000 Hz

Описание:
Савелий Маркович Шальман (р.1945) - известный педагог, кандидат искусствоведения, автор школы "Я буду скрипачом", методических статей, составитель сборников пьес и этюдов. Многие его ученики уже в детстве стали лауреатами и дипломантами различных конкурсов, а выпускники работают в ведущих оркестрах Петербурга и за рубежом. Мастер-классы и концерты учеников С.М. Шальмана прошли во многих городах России, Европы и Америки. Успех деятельности С.М.Шальмана - в рационально выстроенной системе овладения навыками и изучения репертуара.

Курс "Я буду скрипачом" даст возможность увидеть, как происходит общение ученика и учителя, на протяжении ряда лет наблюдать за развитием детей с различными музыкальными способостями. Сериал полезен педагогам как модель учебного процесса, а ученикам и их родителям - как незаменимое пособие в домашних занятиях.
Общее
Полное имя : D:\lib\self\violine\С.Шальман_Я буду скрипачом\Я буду скрипачом_1-4_DVD5\VIDEO_TS\VIDEO_TS.BUP
Формат : DVD Video
Профиль формата : Menu
Размер файла : 12,0 Кбайт
Режим общего битрейта : Переменный

Видео
Идентификатор : 224 (0xE0)
Формат : MPEG Video
Версия формата : Version 2
Вид битрейта : Переменный
Ширина : 720 пикселей
Высота : 576 пикселей
Соотношение сторон : 4:3
Частота кадров : 25,000 кадров/сек
Стандарт вещания : PAL
Метод сжатия : С потерями

Текст
Формат : RLE
Формат/Информация : Run-length encoding
Битовая глубина : 2 бит

Общее
Полное имя : D:\lib\self\violine\С.Шальман_Я буду скрипачом\Я буду скрипачом_1-4_DVD5\VIDEO_TS\VIDEO_TS.IFO
Формат : DVD Video
Профиль формата : Menu
Размер файла : 12,0 Кбайт
Режим общего битрейта : Переменный

Видео
Идентификатор : 224 (0xE0)
Формат : MPEG Video
Версия формата : Version 2
Вид битрейта : Переменный
Ширина : 720 пикселей
Высота : 576 пикселей
Соотношение сторон : 4:3
Частота кадров : 25,000 кадров/сек
Стандарт вещания : PAL
Метод сжатия : С потерями

Текст
Формат : RLE
Формат/Информация : Run-length encoding
Битовая глубина : 2 бит

Общее
Полное имя : D:\lib\self\violine\С.Шальман_Я буду скрипачом\Я буду скрипачом_1-4_DVD5\VIDEO_TS\VIDEO_TS.VOB
Формат : MPEG-PS
Размер файла : 10,0 Кбайт
Продолжительность : 40 мс.
Общий поток : 2048 Кбит/сек

Видео
Идентификатор : 224 (0xE0)
Формат : MPEG Video
Версия формата : Version 2
Профиль формата : Main@Main
Параметр BVOP формата : Нет
Параметр матрицы формата : Выборочная
Продолжительность : 40 мс.
Максимальный битрейт : 9000 Кбит/сек
Ширина : 720 пикселей
Высота : 576 пикселей
Соотношение сторон : 4:3
Частота кадров : 25,000 кадров/сек
Стандарт вещания : PAL
Цветовое пространство : YUV
Субдискретизация насыщенности : 4:2:0
Битовая глубина : 8 бит
Тип развёртки : Прогрессивная
Порядок развёртки : Верхнее поле первое
Метод сжатия : С потерями
Временной код первого кадра : 00:00:00:00
Оригинал временного кода : Group of pictures header
Основные цвета : BT.601 NTSC
Характеристики трансфера : BT.601
Коэффициенты матрицы : BT.601

Меню

Общее
Полное имя : D:\lib\self\violine\С.Шальман_Я буду скрипачом\Я буду скрипачом_1-4_DVD5\VIDEO_TS\VTS_01_0.BUP
Формат : DVD Video
Профиль формата : Program
Размер файла : 102 Кбайт
Продолжительность : 5 ч. 27 м.
Режим общего битрейта : Переменный
Общий поток : 43 бит/сек

Видео
Идентификатор : 224 (0xE0)
Формат : MPEG Video
Версия формата : Version 2
Продолжительность : 5 ч. 27 м.
Вид битрейта : Переменный
Ширина : 720 пикселей
Высота : 576 пикселей
Соотношение сторон : 4:3
Частота кадров : 25,000 кадров/сек
Стандарт вещания : PAL
Метод сжатия : С потерями

Аудио
Идентификатор : 0 (0x0)
Формат : MPEG Audio
Профиль формата : Version 1
Продолжительность : 5 ч. 27 м.
Каналы : 2 канала
Частота : 48,0 КГц
Метод сжатия : С потерями
Язык : English

Меню
Продолжительность : 5 ч. 27 м.
00:00:00.000 : Chapter 1
00:04:35.520 : Chapter 2
00:18:41.760 : Chapter 3
00:34:46.080 : Chapter 4
00:48:15.840 : Chapter 5
01:01:40.800 : Chapter 6
01:16:28.800 : Chapter 7
01:32:35.040 : Chapter 8
01:35:18.720 : Chapter 9
01:40:03.840 : Chapter 10
01:44:13.920 : Chapter 11
01:50:05.280 : Chapter 12
01:55:19.680 : Chapter 13
01:59:20.640 : Chapter 14
02:08:49.440 : Chapter 15
02:17:23.520 : Chapter 16
02:30:59.520 : Chapter 17
02:39:23.040 : Chapter 18
02:40:57.600 : Chapter 19
02:44:56.160 : Chapter 20
02:56:03.360 : Chapter 21
03:06:00.000 : Chapter 22
03:16:28.800 : Chapter 23
03:23:57.120 : Chapter 24
03:37:04.800 : Chapter 25
03:43:26.880 : Chapter 26
03:52:49.440 : Chapter 27
04:07:55.680 : Chapter 28
04:10:54.720 : Chapter 29
04:30:39.360 : Chapter 30
04:38:48.480 : Chapter 31
04:49:12.480 : Chapter 32
04:59:01.440 : Chapter 33
05:09:06.240 : Chapter 34
05:16:47.520 : Chapter 35
05:24:56.160 : Chapter 36
05:27:04.720 : Chapter 37
List (Audio) : 0

Общее
Полное имя : D:\lib\self\violine\С.Шальман_Я буду скрипачом\Я буду скрипачом_1-4_DVD5\VIDEO_TS\VTS_01_0.IFO
Формат : DVD Video
Профиль формата : Program
Размер файла : 102 Кбайт
Продолжительность : 5 ч. 27 м.
Режим общего битрейта : Переменный
Общий поток : 43 бит/сек

Видео
Идентификатор : 224 (0xE0)
Формат : MPEG Video
Версия формата : Version 2
Продолжительность : 5 ч. 27 м.
Вид битрейта : Переменный
Ширина : 720 пикселей
Высота : 576 пикселей
Соотношение сторон : 4:3
Частота кадров : 25,000 кадров/сек
Стандарт вещания : PAL
Метод сжатия : С потерями

Аудио
Идентификатор : 0 (0x0)
Формат : MPEG Audio
Профиль формата : Version 1
Продолжительность : 5 ч. 27 м.
Каналы : 2 канала
Частота : 48,0 КГц
Метод сжатия : С потерями
Язык : English

Меню
Продолжительность : 5 ч. 27 м.
00:00:00.000 : Chapter 1
00:04:35.520 : Chapter 2
00:18:41.760 : Chapter 3
00:34:46.080 : Chapter 4
00:48:15.840 : Chapter 5
01:01:40.800 : Chapter 6
01:16:28.800 : Chapter 7
01:32:35.040 : Chapter 8
01:35:18.720 : Chapter 9
01:40:03.840 : Chapter 10
01:44:13.920 : Chapter 11
01:50:05.280 : Chapter 12
01:55:19.680 : Chapter 13
01:59:20.640 : Chapter 14
02:08:49.440 : Chapter 15
02:17:23.520 : Chapter 16
02:30:59.520 : Chapter 17
02:39:23.040 : Chapter 18
02:40:57.600 : Chapter 19
02:44:56.160 : Chapter 20
02:56:03.360 : Chapter 21
03:06:00.000 : Chapter 22
03:16:28.800 : Chapter 23
03:23:57.120 : Chapter 24
03:37:04.800 : Chapter 25
03:43:26.880 : Chapter 26
03:52:49.440 : Chapter 27
04:07:55.680 : Chapter 28
04:10:54.720 : Chapter 29
04:30:39.360 : Chapter 30
04:38:48.480 : Chapter 31
04:49:12.480 : Chapter 32
04:59:01.440 : Chapter 33
05:09:06.240 : Chapter 34
05:16:47.520 : Chapter 35
05:24:56.160 : Chapter 36
05:27:04.720 : Chapter 37
List (Audio) : 0

Общее
Полное имя : D:\lib\self\violine\С.Шальман_Я буду скрипачом\Я буду скрипачом_1-4_DVD5\VIDEO_TS\VTS_01_0.VOB
Формат : MPEG-PS
Размер файла : 72,0 Кбайт
Продолжительность : 64 мс.
Общий поток : 9216 Кбит/сек

Видео
Идентификатор : 224 (0xE0)
Формат : MPEG Video
Версия формата : Version 2
Профиль формата : Main@Main
Параметр BVOP формата : Нет
Параметр матрицы формата : Выборочная
Продолжительность : 64 мс.
Максимальный битрейт : 9000 Кбит/сек
Ширина : 720 пикселей
Высота : 576 пикселей
Соотношение сторон : 4:3
Частота кадров : 25,000 кадров/сек
Стандарт вещания : PAL
Цветовое пространство : YUV
Субдискретизация насыщенности : 4:2:0
Битовая глубина : 8 бит
Тип развёртки : Прогрессивная
Порядок развёртки : Верхнее поле первое
Метод сжатия : С потерями
Основные цвета : BT.601 NTSC
Характеристики трансфера : BT.601
Коэффициенты матрицы : BT.601

Текст
Идентификатор : 189 (0xBD)-32 (0x20)
Формат : RLE
Формат/Информация : Run-length encoding
Режим смешивания : DVD-Video
Задержка видео : 24 мс.

Меню

Общее
Полное имя : D:\lib\self\violine\С.Шальман_Я буду скрипачом\Я буду скрипачом_1-4_DVD5\VIDEO_TS\VTS_01_1.VOB
Формат : MPEG-PS
Размер файла : 1024 Мбайт
Продолжительность : 1 ч. 17 м.
Общий поток : 1839 Кбит/сек

Видео
Идентификатор : 224 (0xE0)
Формат : MPEG Video
Версия формата : Version 2
Профиль формата : Main@Main
Параметр BVOP формата : Да
Параметр матрицы формата : По умолчанию
Параметр GOP формата : M=3, N=12
Продолжительность : 1 ч. 17 м.
Битрейт : 1630 Кбит/сек
Ширина : 720 пикселей
Высота : 576 пикселей
Соотношение сторон : 4:3
Частота кадров : 25,000 кадров/сек
Стандарт вещания : PAL
Цветовое пространство : YUV
Субдискретизация насыщенности : 4:2:0
Битовая глубина : 8 бит
Тип развёртки : Прогрессивная
Метод сжатия : С потерями
Бит/(Пиксели*Кадры) : 0.157
Временной код первого кадра : 00:00:00:00
Оригинал временного кода : Group of pictures header
Размер потока : 915 Мбайт (89%)

Аудио
Идентификатор : 192 (0xC0)
Формат : MPEG Audio
Версия формата : Version 1
Профиль формата : Layer 2
Продолжительность : 1 ч. 17 м.
Вид битрейта : Постоянный
Битрейт : 160 Кбит/сек
Каналы : 2 канала
Частота : 48,0 КГц
Метод сжатия : С потерями
Задержка видео : -80 мс.
Размер потока : 89,1 Мбайт (9%)

Меню

Общее
Полное имя : D:\lib\self\violine\С.Шальман_Я буду скрипачом\Я буду скрипачом_1-4_DVD5\VIDEO_TS\VTS_01_2.VOB
Формат : MPEG-PS
Размер файла : 1024 Мбайт
Продолжительность : 1 ч. 17 м.
Общий поток : 1839 Кбит/сек

Видео
Идентификатор : 224 (0xE0)
Формат : MPEG Video
Версия формата : Version 2
Профиль формата : Main@Main
Параметр BVOP формата : Да
Параметр матрицы формата : По умолчанию
Параметр GOP формата : M=3, N=12
Продолжительность : 1 ч. 17 м.
Битрейт : 1630 Кбит/сек
Ширина : 720 пикселей
Высота : 576 пикселей
Соотношение сторон : 4:3
Частота кадров : 25,000 кадров/сек
Стандарт вещания : PAL
Цветовое пространство : YUV
Субдискретизация насыщенности : 4:2:0
Битовая глубина : 8 бит
Тип развёртки : Прогрессивная
Метод сжатия : С потерями
Бит/(Пиксели*Кадры) : 0.157
Временной код первого кадра : 01:17:50:10
Оригинал временного кода : Group of pictures header
Размер потока : 914 Мбайт (89%)

Аудио
Идентификатор : 192 (0xC0)
Формат : MPEG Audio
Версия формата : Version 1
Профиль формата : Layer 2
Продолжительность : 1 ч. 17 м.
Вид битрейта : Постоянный
Битрейт : 160 Кбит/сек
Каналы : 2 канала
Частота : 48,0 КГц
Метод сжатия : С потерями
Задержка видео : -368 мс.
Размер потока : 89,1 Мбайт (9%)

Меню

Общее
Полное имя : D:\lib\self\violine\С.Шальман_Я буду скрипачом\Я буду скрипачом_1-4_DVD5\VIDEO_TS\VTS_01_3.VOB
Формат : MPEG-PS
Размер файла : 1024 Мбайт
Продолжительность : 1 ч. 17 м.
Общий поток : 1839 Кбит/сек

Видео
Идентификатор : 224 (0xE0)
Формат : MPEG Video
Версия формата : Version 2
Профиль формата : Main@Main
Параметр BVOP формата : Да
Параметр матрицы формата : По умолчанию
Параметр GOP формата : M=3, N=12
Продолжительность : 1 ч. 17 м.
Битрейт : 1630 Кбит/сек
Ширина : 720 пикселей
Высота : 576 пикселей
Соотношение сторон : 4:3
Частота кадров : 25,000 кадров/сек
Стандарт вещания : PAL
Цветовое пространство : YUV
Субдискретизация насыщенности : 4:2:0
Битовая глубина : 8 бит
Тип развёртки : Прогрессивная
Метод сжатия : С потерями
Бит/(Пиксели*Кадры) : 0.157
Временной код первого кадра : 02:35:40:20
Оригинал временного кода : Group of pictures header
Размер потока : 914 Мбайт (89%)

Аудио
Идентификатор : 192 (0xC0)
Формат : MPEG Audio
Версия формата : Version 1
Профиль формата : Layer 2
Продолжительность : 1 ч. 17 м.
Вид битрейта : Постоянный
Битрейт : 160 Кбит/сек
Каналы : 2 канала
Частота : 48,0 КГц
Метод сжатия : С потерями
Задержка видео : -536 мс.
Размер потока : 89,1 Мбайт (9%)

Меню

Общее
Полное имя : D:\lib\self\violine\С.Шальман_Я буду скрипачом\Я буду скрипачом_1-4_DVD5\VIDEO_TS\VTS_01_4.VOB
Формат : MPEG-PS
Размер файла : 1024 Мбайт
Продолжительность : 1 ч. 17 м.
Общий поток : 1839 Кбит/сек

Видео
Идентификатор : 224 (0xE0)
Формат : MPEG Video
Версия формата : Version 2
Профиль формата : Main@Main
Параметр BVOP формата : Да
Параметр матрицы формата : По умолчанию
Параметр GOP формата : M=3, N=12
Продолжительность : 1 ч. 17 м.
Битрейт : 1630 Кбит/сек
Ширина : 720 пикселей
Высота : 576 пикселей
Соотношение сторон : 4:3
Частота кадров : 25,000 кадров/сек
Стандарт вещания : PAL
Цветовое пространство : YUV
Субдискретизация насыщенности : 4:2:0
Битовая глубина : 8 бит
Тип развёртки : Прогрессивная
Метод сжатия : С потерями
Бит/(Пиксели*Кадры) : 0.157
Временной код первого кадра : 03:53:30:18
Оригинал временного кода : Group of pictures header
Размер потока : 914 Мбайт (89%)

Аудио
Идентификатор : 192 (0xC0)
Формат : MPEG Audio
Версия формата : Version 1
Профиль формата : Layer 2
Продолжительность : 1 ч. 17 м.
Вид битрейта : Постоянный
Битрейт : 160 Кбит/сек
Каналы : 2 канала
Частота : 48,0 КГц
Метод сжатия : С потерями
Задержка видео : -488 мс.
Размер потока : 89,1 Мбайт (9%)

Меню

Общее
Полное имя : D:\lib\self\violine\С.Шальман_Я буду скрипачом\Я буду скрипачом_1-4_DVD5\VIDEO_TS\VTS_01_5.VOB
Формат : MPEG-PS
Размер файла : 207 Мбайт

Видео
Идентификатор : 224 (0xE0)
Формат : MPEG Video
Версия формата : Version 2
Профиль формата : Main@Main
Параметр BVOP формата : Да
Параметр матрицы формата : По умолчанию
Параметр GOP формата : M=3, N=12
Максимальный битрейт : 1630 Кбит/сек
Ширина : 720 пикселей
Высота : 576 пикселей
Соотношение сторон : 4:3
Частота кадров : 25,000 кадров/сек
Стандарт вещания : PAL
Цветовое пространство : YUV
Субдискретизация насыщенности : 4:2:0
Битовая глубина : 8 бит
Тип развёртки : Прогрессивная
Метод сжатия : С потерями
Временной код первого кадра : 05:11:21:03
Оригинал временного кода : Group of pictures header

Аудио
Идентификатор : 192 (0xC0)
Формат : MPEG Audio
Версия формата : Version 1
Профиль формата : Layer 2
Вид битрейта : Постоянный
Битрейт : 160 Кбит/сек
Каналы : 2 канала
Частота : 48,0 КГц
Метод сжатия : С потерями
Задержка видео : -512 мс.

Меню
Общее
Полное имя : D:\lib\self\violine\С.Шальман_Я буду скрипачом\Я буду скрипачом_5-8_DVD5\VIDEO_TS\VIDEO_TS.BUP
Формат : DVD Video
Профиль формата : Menu
Размер файла : 12,0 Кбайт
Режим общего битрейта : Переменный

Видео
Идентификатор : 224 (0xE0)
Формат : MPEG Video
Версия формата : Version 2
Вид битрейта : Переменный
Ширина : 720 пикселей
Высота : 576 пикселей
Соотношение сторон : 4:3
Частота кадров : 25,000 кадров/сек
Стандарт вещания : PAL
Метод сжатия : С потерями

Текст
Формат : RLE
Формат/Информация : Run-length encoding
Битовая глубина : 2 бит

Общее
Полное имя : D:\lib\self\violine\С.Шальман_Я буду скрипачом\Я буду скрипачом_5-8_DVD5\VIDEO_TS\VIDEO_TS.IFO
Формат : DVD Video
Профиль формата : Menu
Размер файла : 12,0 Кбайт
Режим общего битрейта : Переменный

Видео
Идентификатор : 224 (0xE0)
Формат : MPEG Video
Версия формата : Version 2
Вид битрейта : Переменный
Ширина : 720 пикселей
Высота : 576 пикселей
Соотношение сторон : 4:3
Частота кадров : 25,000 кадров/сек
Стандарт вещания : PAL
Метод сжатия : С потерями

Текст
Формат : RLE
Формат/Информация : Run-length encoding
Битовая глубина : 2 бит

Общее
Полное имя : D:\lib\self\violine\С.Шальман_Я буду скрипачом\Я буду скрипачом_5-8_DVD5\VIDEO_TS\VIDEO_TS.VOB
Формат : MPEG-PS
Размер файла : 10,0 Кбайт
Продолжительность : 40 мс.
Общий поток : 2048 Кбит/сек

Видео
Идентификатор : 224 (0xE0)
Формат : MPEG Video
Версия формата : Version 2
Профиль формата : Main@Main
Параметр BVOP формата : Нет
Параметр матрицы формата : Выборочная
Продолжительность : 40 мс.
Максимальный битрейт : 9000 Кбит/сек
Ширина : 720 пикселей
Высота : 576 пикселей
Соотношение сторон : 4:3
Частота кадров : 25,000 кадров/сек
Стандарт вещания : PAL
Цветовое пространство : YUV
Субдискретизация насыщенности : 4:2:0
Битовая глубина : 8 бит
Тип развёртки : Прогрессивная
Порядок развёртки : Верхнее поле первое
Метод сжатия : С потерями
Временной код первого кадра : 00:00:00:00
Оригинал временного кода : Group of pictures header
Основные цвета : BT.601 NTSC
Характеристики трансфера : BT.601
Коэффициенты матрицы : BT.601

Меню

Общее
Полное имя : D:\lib\self\violine\С.Шальман_Я буду скрипачом\Я буду скрипачом_5-8_DVD5\VIDEO_TS\VTS_01_0.BUP
Формат : DVD Video
Профиль формата : Program
Размер файла : 90,0 Кбайт
Продолжительность : 4 ч. 30 м.
Режим общего битрейта : Переменный
Общий поток : 45 бит/сек

Видео
Идентификатор : 224 (0xE0)
Формат : MPEG Video
Версия формата : Version 2
Продолжительность : 4 ч. 30 м.
Вид битрейта : Переменный
Ширина : 720 пикселей
Высота : 576 пикселей
Соотношение сторон : 4:3
Частота кадров : 25,000 кадров/сек
Стандарт вещания : PAL
Метод сжатия : С потерями

Аудио
Идентификатор : 0 (0x0)
Формат : MPEG Audio
Профиль формата : Version 1
Продолжительность : 4 ч. 30 м.
Каналы : 2 канала
Частота : 48,0 КГц
Метод сжатия : С потерями
Язык : English

Меню
Продолжительность : 4 ч. 30 м.
00:00:00.000 : Chapter 1
00:01:36.960 : Chapter 2
00:06:48.000 : Chapter 3
00:09:28.320 : Chapter 4
00:13:41.760 : Chapter 5
00:19:59.040 : Chapter 6
00:24:26.400 : Chapter 7
00:37:07.680 : Chapter 8
00:42:24.000 : Chapter 9
00:48:09.120 : Chapter 10
00:51:13.440 : Chapter 11
00:55:55.680 : Chapter 12
01:00:30.720 : Chapter 13
01:11:59.520 : Chapter 14
01:15:17.760 : Chapter 15
01:22:55.200 : Chapter 16
01:30:04.320 : Chapter 17
01:32:22.560 : Chapter 18
01:43:25.920 : Chapter 19
01:45:25.440 : Chapter 20
01:52:27.360 : Chapter 21
01:55:46.080 : Chapter 22
01:59:39.360 : Chapter 23
02:00:52.320 : Chapter 24
02:15:54.720 : Chapter 25
02:20:14.400 : Chapter 26
02:24:42.720 : Chapter 27
02:37:47.520 : Chapter 28
02:40:28.320 : Chapter 29
02:43:18.240 : Chapter 30
02:52:11.520 : Chapter 31
02:54:40.800 : Chapter 32
02:57:17.760 : Chapter 33
02:58:53.280 : Chapter 34
03:03:19.200 : Chapter 35
03:06:21.120 : Chapter 36
03:31:04.320 : Chapter 37
03:35:37.440 : Chapter 38
03:40:45.120 : Chapter 39
03:47:25.920 : Chapter 40
03:56:40.320 : Chapter 41
03:59:14.880 : Chapter 42
04:30:41.600 : Chapter 43
List (Audio) : 0

Общее
Полное имя : D:\lib\self\violine\С.Шальман_Я буду скрипачом\Я буду скрипачом_5-8_DVD5\VIDEO_TS\VTS_01_0.IFO
Формат : DVD Video
Профиль формата : Program
Размер файла : 90,0 Кбайт
Продолжительность : 4 ч. 30 м.
Режим общего битрейта : Переменный
Общий поток : 45 бит/сек

Видео
Идентификатор : 224 (0xE0)
Формат : MPEG Video
Версия формата : Version 2
Продолжительность : 4 ч. 30 м.
Вид битрейта : Переменный
Ширина : 720 пикселей
Высота : 576 пикселей
Соотношение сторон : 4:3
Частота кадров : 25,000 кадров/сек
Стандарт вещания : PAL
Метод сжатия : С потерями

Аудио
Идентификатор : 0 (0x0)
Формат : MPEG Audio
Профиль формата : Version 1
Продолжительность : 4 ч. 30 м.
Каналы : 2 канала
Частота : 48,0 КГц
Метод сжатия : С потерями
Язык : English

Меню
Продолжительность : 4 ч. 30 м.
00:00:00.000 : Chapter 1
00:01:36.960 : Chapter 2
00:06:48.000 : Chapter 3
00:09:28.320 : Chapter 4
00:13:41.760 : Chapter 5
00:19:59.040 : Chapter 6
00:24:26.400 : Chapter 7
00:37:07.680 : Chapter 8
00:42:24.000 : Chapter 9
00:48:09.120 : Chapter 10
00:51:13.440 : Chapter 11
00:55:55.680 : Chapter 12
01:00:30.720 : Chapter 13
01:11:59.520 : Chapter 14
01:15:17.760 : Chapter 15
01:22:55.200 : Chapter 16
01:30:04.320 : Chapter 17
01:32:22.560 : Chapter 18
01:43:25.920 : Chapter 19
01:45:25.440 : Chapter 20
01:52:27.360 : Chapter 21
01:55:46.080 : Chapter 22
01:59:39.360 : Chapter 23
02:00:52.320 : Chapter 24
02:15:54.720 : Chapter 25
02:20:14.400 : Chapter 26
02:24:42.720 : Chapter 27
02:37:47.520 : Chapter 28
02:40:28.320 : Chapter 29
02:43:18.240 : Chapter 30
02:52:11.520 : Chapter 31
02:54:40.800 : Chapter 32
02:57:17.760 : Chapter 33
02:58:53.280 : Chapter 34
03:03:19.200 : Chapter 35
03:06:21.120 : Chapter 36
03:31:04.320 : Chapter 37
03:35:37.440 : Chapter 38
03:40:45.120 : Chapter 39
03:47:25.920 : Chapter 40
03:56:40.320 : Chapter 41
03:59:14.880 : Chapter 42
04:30:41.600 : Chapter 43
List (Audio) : 0

Общее
Полное имя : D:\lib\self\violine\С.Шальман_Я буду скрипачом\Я буду скрипачом_5-8_DVD5\VIDEO_TS\VTS_01_0.VOB
Формат : MPEG-PS
Размер файла : 72,0 Кбайт
Продолжительность : 64 мс.
Общий поток : 9216 Кбит/сек

Видео
Идентификатор : 224 (0xE0)
Формат : MPEG Video
Версия формата : Version 2
Профиль формата : Main@Main
Параметр BVOP формата : Нет
Параметр матрицы формата : Выборочная
Продолжительность : 64 мс.
Максимальный битрейт : 9000 Кбит/сек
Ширина : 720 пикселей
Высота : 576 пикселей
Соотношение сторон : 4:3
Частота кадров : 25,000 кадров/сек
Стандарт вещания : PAL
Цветовое пространство : YUV
Субдискретизация насыщенности : 4:2:0
Битовая глубина : 8 бит
Тип развёртки : Прогрессивная
Порядок развёртки : Верхнее поле первое
Метод сжатия : С потерями
Основные цвета : BT.601 NTSC
Характеристики трансфера : BT.601
Коэффициенты матрицы : BT.601

Текст
Идентификатор : 189 (0xBD)-32 (0x20)
Формат : RLE
Формат/Информация : Run-length encoding
Режим смешивания : DVD-Video
Задержка видео : 24 мс.

Меню

Общее
Полное имя : D:\lib\self\violine\С.Шальман_Я буду скрипачом\Я буду скрипачом_5-8_DVD5\VIDEO_TS\VTS_01_1.VOB
Формат : MPEG-PS
Размер файла : 1024 Мбайт
Продолжительность : 1 ч. 3 м.
Общий поток : 2254 Кбит/сек

Видео
Идентификатор : 224 (0xE0)
Формат : MPEG Video
Версия формата : Version 2
Профиль формата : Main@Main
Параметр BVOP формата : Да
Параметр матрицы формата : По умолчанию
Параметр GOP формата : M=3, N=12
Продолжительность : 1 ч. 3 м.
Битрейт : 2040 Кбит/сек
Ширина : 720 пикселей
Высота : 576 пикселей
Соотношение сторон : 4:3
Частота кадров : 25,000 кадров/сек
Стандарт вещания : PAL
Цветовое пространство : YUV
Субдискретизация насыщенности : 4:2:0
Битовая глубина : 8 бит
Тип развёртки : Прогрессивная
Метод сжатия : С потерями
Бит/(Пиксели*Кадры) : 0.197
Временной код первого кадра : 00:00:00:00
Оригинал временного кода : Group of pictures header
Размер потока : 931 Мбайт (91%)

Аудио
Идентификатор : 192 (0xC0)
Формат : MPEG Audio
Версия формата : Version 1
Профиль формата : Layer 2
Продолжительность : 1 ч. 3 м.
Вид битрейта : Постоянный
Битрейт : 160 Кбит/сек
Каналы : 2 канала
Частота : 48,0 КГц
Метод сжатия : С потерями
Задержка видео : -80 мс.
Размер потока : 72,7 Мбайт (7%)

Меню

Общее
Полное имя : D:\lib\self\violine\С.Шальман_Я буду скрипачом\Я буду скрипачом_5-8_DVD5\VIDEO_TS\VTS_01_2.VOB
Формат : MPEG-PS
Размер файла : 1024 Мбайт
Продолжительность : 1 ч. 3 м.
Общий поток : 2254 Кбит/сек

Видео
Идентификатор : 224 (0xE0)
Формат : MPEG Video
Версия формата : Version 2
Профиль формата : Main@Main
Параметр BVOP формата : Да
Параметр матрицы формата : По умолчанию
Параметр GOP формата : M=3, N=12
Продолжительность : 1 ч. 3 м.
Битрейт : 2040 Кбит/сек
Ширина : 720 пикселей
Высота : 576 пикселей
Соотношение сторон : 4:3
Частота кадров : 25,000 кадров/сек
Стандарт вещания : PAL
Цветовое пространство : YUV
Субдискретизация насыщенности : 4:2:0
Битовая глубина : 8 бит
Тип развёртки : Прогрессивная
Метод сжатия : С потерями
Бит/(Пиксели*Кадры) : 0.197
Временной код первого кадра : 01:03:31:05
Оригинал временного кода : Group of pictures header
Размер потока : 931 Мбайт (91%)

Аудио
Идентификатор : 192 (0xC0)
Формат : MPEG Audio
Версия формата : Version 1
Профиль формата : Layer 2
Продолжительность : 1 ч. 3 м.
Вид битрейта : Постоянный
Битрейт : 160 Кбит/сек
Каналы : 2 канала
Частота : 48,0 КГц
Метод сжатия : С потерями
Задержка видео : -272 мс.
Размер потока : 72,7 Мбайт (7%)

Меню

Общее
Полное имя : D:\lib\self\violine\С.Шальман_Я буду скрипачом\Я буду скрипачом_5-8_DVD5\VIDEO_TS\VTS_01_3.VOB
Формат : MPEG-PS
Размер файла : 1024 Мбайт
Продолжительность : 1 ч. 3 м.
Общий поток : 2254 Кбит/сек

Видео
Идентификатор : 224 (0xE0)
Формат : MPEG Video
Версия формата : Version 2
Профиль формата : Main@Main
Параметр BVOP формата : Да
Параметр матрицы формата : По умолчанию
Параметр GOP формата : M=3, N=12
Продолжительность : 1 ч. 3 м.
Битрейт : 2040 Кбит/сек
Ширина : 720 пикселей
Высота : 576 пикселей
Соотношение сторон : 4:3
Частота кадров : 25,000 кадров/сек
Стандарт вещания : PAL
Цветовое пространство : YUV
Субдискретизация насыщенности : 4:2:0
Битовая глубина : 8 бит
Тип развёртки : Прогрессивная
Метод сжатия : С потерями
Бит/(Пиксели*Кадры) : 0.197
Временной код первого кадра : 02:07:02:10
Оригинал временного кода : Group of pictures header
Размер потока : 931 Мбайт (91%)

Аудио
Идентификатор : 192 (0xC0)
Формат : MPEG Audio
Версия формата : Version 1
Профиль формата : Layer 2
Продолжительность : 1 ч. 3 м.
Вид битрейта : Постоянный
Битрейт : 160 Кбит/сек
Каналы : 2 канала
Частота : 48,0 КГц
Метод сжатия : С потерями
Задержка видео : -560 мс.
Размер потока : 72,7 Мбайт (7%)

Меню

Общее
Полное имя : D:\lib\self\violine\С.Шальман_Я буду скрипачом\Я буду скрипачом_5-8_DVD5\VIDEO_TS\VTS_01_4.VOB
Формат : MPEG-PS
Размер файла : 1024 Мбайт
Продолжительность : 1 ч. 3 м.
Общий поток : 2254 Кбит/сек

Видео
Идентификатор : 224 (0xE0)
Формат : MPEG Video
Версия формата : Version 2
Профиль формата : Main@Main
Параметр BVOP формата : Да
Параметр матрицы формата : По умолчанию
Параметр GOP формата : M=3, N=12
Продолжительность : 1 ч. 3 м.
Битрейт : 2040 Кбит/сек
Ширина : 720 пикселей
Высота : 576 пикселей
Соотношение сторон : 4:3
Частота кадров : 25,000 кадров/сек
Стандарт вещания : PAL
Цветовое пространство : YUV
Субдискретизация насыщенности : 4:2:0
Битовая глубина : 8 бит
Тип развёртки : Прогрессивная
Метод сжатия : С потерями
Бит/(Пиксели*Кадры) : 0.197
Временной код первого кадра : 03:10:33:15
Оригинал временного кода : Group of pictures header
Размер потока : 931 Мбайт (91%)

Аудио
Идентификатор : 192 (0xC0)
Формат : MPEG Audio
Версия формата : Version 1
Профиль формата : Layer 2
Продолжительность : 1 ч. 3 м.
Вид битрейта : Постоянный
Битрейт : 160 Кбит/сек
Каналы : 2 канала
Частота : 48,0 КГц
Метод сжатия : С потерями
Задержка видео : -560 мс.
Размер потока : 72,7 Мбайт (7%)

Меню

Общее
Полное имя : D:\lib\self\violine\С.Шальман_Я буду скрипачом\Я буду скрипачом_5-8_DVD5\VIDEO_TS\VTS_01_5.VOB
Формат : MPEG-PS
Размер файла : 268 Мбайт

Видео
Идентификатор : 224 (0xE0)
Формат : MPEG Video
Версия формата : Version 2
Профиль формата : Main@Main
Параметр BVOP формата : Да
Параметр матрицы формата : По умолчанию
Параметр GOP формата : M=3, N=12
Максимальный битрейт : 2040 Кбит/сек
Ширина : 720 пикселей
Высота : 576 пикселей
Соотношение сторон : 4:3
Частота кадров : 25,000 кадров/сек
Стандарт вещания : PAL
Цветовое пространство : YUV
Субдискретизация насыщенности : 4:2:0
Битовая глубина : 8 бит
Тип развёртки : Прогрессивная
Метод сжатия : С потерями
Временной код первого кадра : 04:14:04:20
Оригинал временного кода : Group of pictures header

Аудио
Идентификатор : 192 (0xC0)
Формат : MPEG Audio
Версия формата : Version 1
Профиль формата : Layer 2
Вид битрейта : Постоянный
Битрейт : 160 Кбит/сек
Каналы : 2 канала
Частота : 48,0 КГц
Метод сжатия : С потерями
Задержка видео : -560 мс.

Меню
Общее
Полное имя : D:\lib\self\violine\С.Шальман_Я буду скрипачом\Я буду скрипачом_9-12_DVD5\VIDEO_TS\VIDEO_TS.BUP
Формат : DVD Video
Профиль формата : Menu
Размер файла : 12,0 Кбайт
Режим общего битрейта : Переменный

Видео
Идентификатор : 224 (0xE0)
Формат : MPEG Video
Версия формата : Version 2
Вид битрейта : Переменный
Ширина : 720 пикселей
Высота : 576 пикселей
Соотношение сторон : 4:3
Частота кадров : 25,000 кадров/сек
Стандарт вещания : PAL
Метод сжатия : С потерями

Текст
Формат : RLE
Формат/Информация : Run-length encoding
Битовая глубина : 2 бит

Общее
Полное имя : D:\lib\self\violine\С.Шальман_Я буду скрипачом\Я буду скрипачом_9-12_DVD5\VIDEO_TS\VIDEO_TS.IFO
Формат : DVD Video
Профиль формата : Menu
Размер файла : 12,0 Кбайт
Режим общего битрейта : Переменный

Видео
Идентификатор : 224 (0xE0)
Формат : MPEG Video
Версия формата : Version 2
Вид битрейта : Переменный
Ширина : 720 пикселей
Высота : 576 пикселей
Соотношение сторон : 4:3
Частота кадров : 25,000 кадров/сек
Стандарт вещания : PAL
Метод сжатия : С потерями

Текст
Формат : RLE
Формат/Информация : Run-length encoding
Битовая глубина : 2 бит

Общее
Полное имя : D:\lib\self\violine\С.Шальман_Я буду скрипачом\Я буду скрипачом_9-12_DVD5\VIDEO_TS\VIDEO_TS.VOB
Формат : MPEG-PS
Размер файла : 10,0 Кбайт
Продолжительность : 40 мс.
Общий поток : 2048 Кбит/сек

Видео
Идентификатор : 224 (0xE0)
Формат : MPEG Video
Версия формата : Version 2
Профиль формата : Main@Main
Параметр BVOP формата : Нет
Параметр матрицы формата : Выборочная
Продолжительность : 40 мс.
Максимальный битрейт : 9000 Кбит/сек
Ширина : 720 пикселей
Высота : 576 пикселей
Соотношение сторон : 4:3
Частота кадров : 25,000 кадров/сек
Стандарт вещания : PAL
Цветовое пространство : YUV
Субдискретизация насыщенности : 4:2:0
Битовая глубина : 8 бит
Тип развёртки : Прогрессивная
Порядок развёртки : Верхнее поле первое
Метод сжатия : С потерями
Временной код первого кадра : 00:00:00:00
Оригинал временного кода : Group of pictures header
Основные цвета : BT.601 NTSC
Характеристики трансфера : BT.601
Коэффициенты матрицы : BT.601

Меню

Общее
Полное имя : D:\lib\self\violine\С.Шальман_Я буду скрипачом\Я буду скрипачом_9-12_DVD5\VIDEO_TS\VTS_01_0.BUP
Формат : DVD Video
Профиль формата : Program
Размер файла : 94,0 Кбайт
Продолжительность : 4 ч. 51 м.
Режим общего битрейта : Переменный
Общий поток : 44 бит/сек

Видео
Идентификатор : 224 (0xE0)
Формат : MPEG Video
Версия формата : Version 2
Продолжительность : 4 ч. 51 м.
Вид битрейта : Переменный
Ширина : 720 пикселей
Высота : 576 пикселей
Соотношение сторон : 4:3
Частота кадров : 25,000 кадров/сек
Стандарт вещания : PAL
Метод сжатия : С потерями

Аудио
Идентификатор : 0 (0x0)
Формат : MPEG Audio
Профиль формата : Version 1
Продолжительность : 4 ч. 51 м.
Каналы : 2 канала
Частота : 48,0 КГц
Метод сжатия : С потерями
Язык : English

Меню
Продолжительность : 4 ч. 51 м.
00:00:00.000 : Chapter 1
00:06:48.960 : Chapter 2
00:22:59.040 : Chapter 3
00:35:26.400 : Chapter 4
00:44:43.200 : Chapter 5
01:01:55.680 : Chapter 6
01:13:39.840 : Chapter 7
01:17:10.560 : Chapter 8
01:20:08.160 : Chapter 9
01:30:39.840 : Chapter 10
01:47:31.200 : Chapter 11
01:50:20.160 : Chapter 12
02:09:16.320 : Chapter 13
02:26:07.200 : Chapter 14
02:28:59.040 : Chapter 15
02:29:37.440 : Chapter 16
02:48:50.400 : Chapter 17
03:00:52.800 : Chapter 18
03:11:27.360 : Chapter 19
03:20:10.080 : Chapter 20
03:25:30.720 : Chapter 21
03:28:36.000 : Chapter 22
03:29:17.280 : Chapter 23
03:35:00.480 : Chapter 24
03:40:14.880 : Chapter 25
03:48:56.640 : Chapter 26
04:00:31.680 : Chapter 27
04:06:57.600 : Chapter 28
04:18:20.160 : Chapter 29
04:21:08.640 : Chapter 30
04:28:25.440 : Chapter 31
04:32:48.960 : Chapter 32
04:45:46.560 : Chapter 33
04:51:25.640 : Chapter 34
List (Audio) : 0

Общее
Полное имя : D:\lib\self\violine\С.Шальман_Я буду скрипачом\Я буду скрипачом_9-12_DVD5\VIDEO_TS\VTS_01_0.IFO
Формат : DVD Video
Профиль формата : Program
Размер файла : 94,0 Кбайт
Продолжительность : 4 ч. 51 м.
Режим общего битрейта : Переменный
Общий поток : 44 бит/сек

Видео
Идентификатор : 224 (0xE0)
Формат : MPEG Video
Версия формата : Version 2
Продолжительность : 4 ч. 51 м.
Вид битрейта : Переменный
Ширина : 720 пикселей
Высота : 576 пикселей
Соотношение сторон : 4:3
Частота кадров : 25,000 кадров/сек
Стандарт вещания : PAL
Метод сжатия : С потерями

Аудио
Идентификатор : 0 (0x0)
Формат : MPEG Audio
Профиль формата : Version 1
Продолжительность : 4 ч. 51 м.
Каналы : 2 канала
Частота : 48,0 КГц
Метод сжатия : С потерями
Язык : English

Меню
Продолжительность : 4 ч. 51 м.
00:00:00.000 : Chapter 1
00:06:48.960 : Chapter 2
00:22:59.040 : Chapter 3
00:35:26.400 : Chapter 4
00:44:43.200 : Chapter 5
01:01:55.680 : Chapter 6
01:13:39.840 : Chapter 7
01:17:10.560 : Chapter 8
01:20:08.160 : Chapter 9
01:30:39.840 : Chapter 10
01:47:31.200 : Chapter 11
01:50:20.160 : Chapter 12
02:09:16.320 : Chapter 13
02:26:07.200 : Chapter 14
02:28:59.040 : Chapter 15
02:29:37.440 : Chapter 16
02:48:50.400 : Chapter 17
03:00:52.800 : Chapter 18
03:11:27.360 : Chapter 19
03:20:10.080 : Chapter 20
03:25:30.720 : Chapter 21
03:28:36.000 : Chapter 22
03:29:17.280 : Chapter 23
03:35:00.480 : Chapter 24
03:40:14.880 : Chapter 25
03:48:56.640 : Chapter 26
04:00:31.680 : Chapter 27
04:06:57.600 : Chapter 28
04:18:20.160 : Chapter 29
04:21:08.640 : Chapter 30
04:28:25.440 : Chapter 31
04:32:48.960 : Chapter 32
04:45:46.560 : Chapter 33
04:51:25.640 : Chapter 34
List (Audio) : 0

Общее
Полное имя : D:\lib\self\violine\С.Шальман_Я буду скрипачом\Я буду скрипачом_9-12_DVD5\VIDEO_TS\VTS_01_0.VOB
Формат : MPEG-PS
Размер файла : 70,0 Кбайт
Продолжительность : 63 мс.
Общий поток : 9102 Кбит/сек

Видео
Идентификатор : 224 (0xE0)
Формат : MPEG Video
Версия формата : Version 2
Профиль формата : Main@Main
Параметр BVOP формата : Нет
Параметр матрицы формата : Выборочная
Продолжительность : 63 мс.
Максимальный битрейт : 9000 Кбит/сек
Ширина : 720 пикселей
Высота : 576 пикселей
Соотношение сторон : 4:3
Частота кадров : 25,000 кадров/сек
Стандарт вещания : PAL
Цветовое пространство : YUV
Субдискретизация насыщенности : 4:2:0
Битовая глубина : 8 бит
Тип развёртки : Прогрессивная
Порядок развёртки : Верхнее поле первое
Метод сжатия : С потерями
Основные цвета : BT.601 NTSC
Характеристики трансфера : BT.601
Коэффициенты матрицы : BT.601

Текст
Идентификатор : 189 (0xBD)-32 (0x20)
Формат : RLE
Формат/Информация : Run-length encoding
Режим смешивания : DVD-Video
Задержка видео : 23 мс.

Меню

Общее
Полное имя : D:\lib\self\violine\С.Шальман_Я буду скрипачом\Я буду скрипачом_9-12_DVD5\VIDEO_TS\VTS_01_1.VOB
Формат : MPEG-PS
Размер файла : 1024 Мбайт
Продолжительность : 1 ч. 8 м.
Общий поток : 2102 Кбит/сек

Видео
Идентификатор : 224 (0xE0)
Формат : MPEG Video
Версия формата : Version 2
Профиль формата : Main@Main
Параметр BVOP формата : Да
Параметр матрицы формата : По умолчанию
Параметр GOP формата : M=3, N=12
Продолжительность : 1 ч. 8 м.
Битрейт : 1890 Кбит/сек
Ширина : 720 пикселей
Высота : 576 пикселей
Соотношение сторон : 4:3
Частота кадров : 25,000 кадров/сек
Стандарт вещания : PAL
Цветовое пространство : YUV
Субдискретизация насыщенности : 4:2:0
Битовая глубина : 8 бит
Тип развёртки : Прогрессивная
Метод сжатия : С потерями
Бит/(Пиксели*Кадры) : 0.182
Временной код первого кадра : 00:00:00:00
Оригинал временного кода : Group of pictures header
Размер потока : 926 Мбайт (90%)

Аудио
Идентификатор : 192 (0xC0)
Формат : MPEG Audio
Версия формата : Version 1
Профиль формата : Layer 2
Продолжительность : 1 ч. 8 м.
Вид битрейта : Постоянный
Битрейт : 160 Кбит/сек
Каналы : 2 канала
Частота : 48,0 КГц
Метод сжатия : С потерями
Задержка видео : -80 мс.
Размер потока : 77,9 Мбайт (8%)

Меню

Общее
Полное имя : D:\lib\self\violine\С.Шальман_Я буду скрипачом\Я буду скрипачом_9-12_DVD5\VIDEO_TS\VTS_01_2.VOB
Формат : MPEG-PS
Размер файла : 1024 Мбайт
Продолжительность : 1 ч. 8 м.
Общий поток : 2102 Кбит/сек

Видео
Идентификатор : 224 (0xE0)
Формат : MPEG Video
Версия формата : Version 2
Профиль формата : Main@Main
Параметр BVOP формата : Да
Параметр матрицы формата : По умолчанию
Параметр GOP формата : M=3, N=12
Продолжительность : 1 ч. 8 м.
Битрейт : 1890 Кбит/сек
Ширина : 720 пикселей
Высота : 576 пикселей
Соотношение сторон : 4:3
Частота кадров : 25,000 кадров/сек
Стандарт вещания : PAL
Цветовое пространство : YUV
Субдискретизация насыщенности : 4:2:0
Битовая глубина : 8 бит
Тип развёртки : Прогрессивная
Метод сжатия : С потерями
Бит/(Пиксели*Кадры) : 0.182
Временной код первого кадра : 01:08:06:06
Оригинал временного кода : Group of pictures header
Размер потока : 926 Мбайт (90%)

Аудио
Идентификатор : 192 (0xC0)
Формат : MPEG Audio
Версия формата : Version 1
Профиль формата : Layer 2
Продолжительность : 1 ч. 8 м.
Вид битрейта : Постоянный
Битрейт : 160 Кбит/сек
Каналы : 2 канала
Частота : 48,0 КГц
Метод сжатия : С потерями
Задержка видео : -560 мс.
Размер потока : 77,9 Мбайт (8%)

Меню

Общее
Полное имя : D:\lib\self\violine\С.Шальман_Я буду скрипачом\Я буду скрипачом_9-12_DVD5\VIDEO_TS\VTS_01_3.VOB
Формат : MPEG-PS
Размер файла : 1024 Мбайт
Продолжительность : 1 ч. 8 м.
Общий поток : 2102 Кбит/сек

Видео
Идентификатор : 224 (0xE0)
Формат : MPEG Video
Версия формата : Version 2
Профиль формата : Main@Main
Параметр BVOP формата : Да
Параметр матрицы формата : По умолчанию
Параметр GOP формата : M=3, N=12
Продолжительность : 1 ч. 8 м.
Битрейт : 1890 Кбит/сек
Ширина : 720 пикселей
Высота : 576 пикселей
Соотношение сторон : 4:3
Частота кадров : 25,000 кадров/сек
Стандарт вещания : PAL
Цветовое пространство : YUV
Субдискретизация насыщенности : 4:2:0
Битовая глубина : 8 бит
Тип развёртки : Прогрессивная
Метод сжатия : С потерями
Бит/(Пиксели*Кадры) : 0.182
Временной код первого кадра : 02:16:12:00
Оригинал временного кода : Group of pictures header
Размер потока : 926 Мбайт (90%)

Аудио
Идентификатор : 192 (0xC0)
Формат : MPEG Audio
Версия формата : Version 1
Профиль формата : Layer 2
Продолжительность : 1 ч. 8 м.
Вид битрейта : Постоянный
Битрейт : 160 Кбит/сек
Каналы : 2 канала
Частота : 48,0 КГц
Метод сжатия : С потерями
Задержка видео : -368 мс.
Размер потока : 77,9 Мбайт (8%)

Меню

Общее
Полное имя : D:\lib\self\violine\С.Шальман_Я буду скрипачом\Я буду скрипачом_9-12_DVD5\VIDEO_TS\VTS_01_4.VOB
Формат : MPEG-PS
Размер файла : 1024 Мбайт
Продолжительность : 1 ч. 8 м.
Общий поток : 2102 Кбит/сек

Видео
Идентификатор : 224 (0xE0)
Формат : MPEG Video
Версия формата : Version 2
Профиль формата : Main@Main
Параметр BVOP формата : Да
Параметр матрицы формата : По умолчанию
Параметр GOP формата : M=3, N=12
Продолжительность : 1 ч. 8 м.
Битрейт : 1890 Кбит/сек
Ширина : 720 пикселей
Высота : 576 пикселей
Соотношение сторон : 4:3
Частота кадров : 25,000 кадров/сек
Стандарт вещания : PAL
Цветовое пространство : YUV
Субдискретизация насыщенности : 4:2:0
Битовая глубина : 8 бит
Тип развёртки : Прогрессивная
Метод сжатия : С потерями
Бит/(Пиксели*Кадры) : 0.182
Временной код первого кадра : 03:24:17:19
Оригинал временного кода : Group of pictures header
Размер потока : 926 Мбайт (90%)

Аудио
Идентификатор : 192 (0xC0)
Формат : MPEG Audio
Версия формата : Version 1
Профиль формата : Layer 2
Продолжительность : 1 ч. 8 м.
Вид битрейта : Постоянный
Битрейт : 160 Кбит/сек
Каналы : 2 канала
Частота : 48,0 КГц
Метод сжатия : С потерями
Задержка видео : -584 мс.
Размер потока : 77,9 Мбайт (8%)

Меню

Общее
Полное имя : D:\lib\self\violine\С.Шальман_Я буду скрипачом\Я буду скрипачом_9-12_DVD5\VIDEO_TS\VTS_01_5.VOB
Формат : MPEG-PS
Размер файла : 286 Мбайт

Видео
Идентификатор : 224 (0xE0)
Формат : MPEG Video
Версия формата : Version 2
Профиль формата : Main@Main
Параметр BVOP формата : Да
Параметр матрицы формата : По умолчанию
Параметр GOP формата : M=3, N=12
Максимальный битрейт : 1890 Кбит/сек
Ширина : 720 пикселей
Высота : 576 пикселей
Соотношение сторон : 4:3
Частота кадров : 25,000 кадров/сек
Стандарт вещания : PAL
Цветовое пространство : YUV
Субдискретизация насыщенности : 4:2:0
Битовая глубина : 8 бит
Тип развёртки : Прогрессивная
Метод сжатия : С потерями
Временной код первого кадра : 04:32:23:13
Оригинал временного кода : Group of pictures header

Аудио
Идентификатор : 192 (0xC0)
Формат : MPEG Audio
Версия формата : Version 1
Профиль формата : Layer 2
Вид битрейта : Постоянный
Битрейт : 160 Кбит/сек
Каналы : 2 канала
Частота : 48,0 КГц
Метод сжатия : С потерями
Задержка видео : -368 мс.

Меню
Общее
Полное имя : D:\lib\self\violine\С.Шальман_Я буду скрипачом\Я буду скрипачом_13-15_DVD5\VIDEO_TS\VIDEO_TS.BUP
Формат : DVD Video
Профиль формата : Menu
Размер файла : 12,0 Кбайт
Режим общего битрейта : Переменный

Видео
Идентификатор : 224 (0xE0)
Формат : MPEG Video
Версия формата : Version 2
Вид битрейта : Переменный
Ширина : 720 пикселей
Высота : 576 пикселей
Соотношение сторон : 4:3
Частота кадров : 25,000 кадров/сек
Стандарт вещания : PAL
Метод сжатия : С потерями

Текст
Формат : RLE
Формат/Информация : Run-length encoding
Битовая глубина : 2 бит

Общее
Полное имя : D:\lib\self\violine\С.Шальман_Я буду скрипачом\Я буду скрипачом_13-15_DVD5\VIDEO_TS\VIDEO_TS.IFO
Формат : DVD Video
Профиль формата : Menu
Размер файла : 12,0 Кбайт
Режим общего битрейта : Переменный

Видео
Идентификатор : 224 (0xE0)
Формат : MPEG Video
Версия формата : Version 2
Вид битрейта : Переменный
Ширина : 720 пикселей
Высота : 576 пикселей
Соотношение сторон : 4:3
Частота кадров : 25,000 кадров/сек
Стандарт вещания : PAL
Метод сжатия : С потерями

Текст
Формат : RLE
Формат/Информация : Run-length encoding
Битовая глубина : 2 бит

Общее
Полное имя : D:\lib\self\violine\С.Шальман_Я буду скрипачом\Я буду скрипачом_13-15_DVD5\VIDEO_TS\VIDEO_TS.VOB
Формат : MPEG-PS
Размер файла : 10,0 Кбайт
Продолжительность : 40 мс.
Общий поток : 2048 Кбит/сек

Видео
Идентификатор : 224 (0xE0)
Формат : MPEG Video
Версия формата : Version 2
Профиль формата : Main@Main
Параметр BVOP формата : Нет
Параметр матрицы формата : Выборочная
Продолжительность : 40 мс.
Максимальный битрейт : 9000 Кбит/сек
Ширина : 720 пикселей
Высота : 576 пикселей
Соотношение сторон : 4:3
Частота кадров : 25,000 кадров/сек
Стандарт вещания : PAL
Цветовое пространство : YUV
Субдискретизация насыщенности : 4:2:0
Битовая глубина : 8 бит
Тип развёртки : Прогрессивная
Порядок развёртки : Верхнее поле первое
Метод сжатия : С потерями
Временной код первого кадра : 00:00:00:00
Оригинал временного кода : Group of pictures header
Основные цвета : BT.601 NTSC
Характеристики трансфера : BT.601
Коэффициенты матрицы : BT.601

Меню

Общее
Полное имя : D:\lib\self\violine\С.Шальман_Я буду скрипачом\Я буду скрипачом_13-15_DVD5\VIDEO_TS\VTS_01_0.BUP
Формат : DVD Video
Профиль формата : Program
Размер файла : 84,0 Кбайт
Продолжительность : 3 ч. 58 м.
Режим общего битрейта : Переменный
Общий поток : 48 бит/сек

Видео
Идентификатор : 224 (0xE0)
Формат : MPEG Video
Версия формата : Version 2
Продолжительность : 3 ч. 58 м.
Вид битрейта : Переменный
Ширина : 720 пикселей
Высота : 576 пикселей
Соотношение сторон : 4:3
Частота кадров : 25,000 кадров/сек
Стандарт вещания : PAL
Метод сжатия : С потерями

Аудио
Идентификатор : 0 (0x0)
Формат : MPEG Audio
Профиль формата : Version 1
Продолжительность : 3 ч. 58 м.
Каналы : 2 канала
Частота : 48,0 КГц
Метод сжатия : С потерями
Язык : English

Меню
Продолжительность : 3 ч. 58 м.
00:00:00.000 : Chapter 1
00:01:25.440 : Chapter 2
00:04:50.880 : Chapter 3
00:16:33.120 : Chapter 4
00:28:34.560 : Chapter 5
00:31:30.240 : Chapter 6
00:40:36.960 : Chapter 7
00:48:37.920 : Chapter 8
00:50:55.200 : Chapter 9
00:52:45.600 : Chapter 10
01:02:30.720 : Chapter 11
01:11:38.880 : Chapter 12
01:19:25.920 : Chapter 13
01:20:48.480 : Chapter 14
01:31:05.760 : Chapter 15
01:42:53.280 : Chapter 16
01:49:00.000 : Chapter 17
01:59:44.640 : Chapter 18
02:04:34.080 : Chapter 19
02:12:12.000 : Chapter 20
02:18:15.360 : Chapter 21
02:23:44.160 : Chapter 22
02:28:08.160 : Chapter 23
02:28:48.000 : Chapter 24
02:31:53.760 : Chapter 25
02:34:17.280 : Chapter 26
02:36:27.840 : Chapter 27
02:37:08.640 : Chapter 28
02:40:30.720 : Chapter 29
02:41:42.240 : Chapter 30
02:42:32.160 : Chapter 31
02:44:27.360 : Chapter 32
02:50:30.720 : Chapter 33
02:51:38.400 : Chapter 34
02:56:21.120 : Chapter 35
03:00:02.400 : Chapter 36
03:02:23.520 : Chapter 37
03:11:24.480 : Chapter 38
03:12:56.640 : Chapter 39
03:24:45.120 : Chapter 40
03:25:49.920 : Chapter 41
03:33:57.600 : Chapter 42
03:36:36.960 : Chapter 43
03:40:12.960 : Chapter 44
03:41:07.680 : Chapter 45
03:50:11.040 : Chapter 46
03:51:41.280 : Chapter 47
03:54:24.000 : Chapter 48
03:58:39.720 : Chapter 49
List (Audio) : 0

Общее
Полное имя : D:\lib\self\violine\С.Шальман_Я буду скрипачом\Я буду скрипачом_13-15_DVD5\VIDEO_TS\VTS_01_0.IFO
Формат : DVD Video
Профиль формата : Program
Размер файла : 84,0 Кбайт
Продолжительность : 3 ч. 58 м.
Режим общего битрейта : Переменный
Общий поток : 48 бит/сек

Видео
Идентификатор : 224 (0xE0)
Формат : MPEG Video
Версия формата : Version 2
Продолжительность : 3 ч. 58 м.
Вид битрейта : Переменный
Ширина : 720 пикселей
Высота : 576 пикселей
Соотношение сторон : 4:3
Частота кадров : 25,000 кадров/сек
Стандарт вещания : PAL
Метод сжатия : С потерями

Аудио
Идентификатор : 0 (0x0)
Формат : MPEG Audio
Профиль формата : Version 1
Продолжительность : 3 ч. 58 м.
Каналы : 2 канала
Частота : 48,0 КГц
Метод сжатия : С потерями
Язык : English

Меню
Продолжительность : 3 ч. 58 м.
00:00:00.000 : Chapter 1
00:01:25.440 : Chapter 2
00:04:50.880 : Chapter 3
00:16:33.120 : Chapter 4
00:28:34.560 : Chapter 5
00:31:30.240 : Chapter 6
00:40:36.960 : Chapter 7
00:48:37.920 : Chapter 8
00:50:55.200 : Chapter 9
00:52:45.600 : Chapter 10
01:02:30.720 : Chapter 11
01:11:38.880 : Chapter 12
01:19:25.920 : Chapter 13
01:20:48.480 : Chapter 14
01:31:05.760 : Chapter 15
01:42:53.280 : Chapter 16
01:49:00.000 : Chapter 17
01:59:44.640 : Chapter 18
02:04:34.080 : Chapter 19
02:12:12.000 : Chapter 20
02:18:15.360 : Chapter 21
02:23:44.160 : Chapter 22
02:28:08.160 : Chapter 23
02:28:48.000 : Chapter 24
02:31:53.760 : Chapter 25
02:34:17.280 : Chapter 26
02:36:27.840 : Chapter 27
02:37:08.640 : Chapter 28
02:40:30.720 : Chapter 29
02:41:42.240 : Chapter 30
02:42:32.160 : Chapter 31
02:44:27.360 : Chapter 32
02:50:30.720 : Chapter 33
02:51:38.400 : Chapter 34
02:56:21.120 : Chapter 35
03:00:02.400 : Chapter 36
03:02:23.520 : Chapter 37
03:11:24.480 : Chapter 38
03:12:56.640 : Chapter 39
03:24:45.120 : Chapter 40
03:25:49.920 : Chapter 41
03:33:57.600 : Chapter 42
03:36:36.960 : Chapter 43
03:40:12.960 : Chapter 44
03:41:07.680 : Chapter 45
03:50:11.040 : Chapter 46
03:51:41.280 : Chapter 47
03:54:24.000 : Chapter 48
03:58:39.720 : Chapter 49
List (Audio) : 0

Общее
Полное имя : D:\lib\self\violine\С.Шальман_Я буду скрипачом\Я буду скрипачом_13-15_DVD5\VIDEO_TS\VTS_01_0.VOB
Формат : MPEG-PS
Размер файла : 68,0 Кбайт
Продолжительность : 62 мс.
Общий поток : 8985 Кбит/сек

Видео
Идентификатор : 224 (0xE0)
Формат : MPEG Video
Версия формата : Version 2
Профиль формата : Main@Main
Параметр BVOP формата : Нет
Параметр матрицы формата : Выборочная
Продолжительность : 62 мс.
Максимальный битрейт : 9000 Кбит/сек
Ширина : 720 пикселей
Высота : 576 пикселей
Соотношение сторон : 4:3
Частота кадров : 25,000 кадров/сек
Стандарт вещания : PAL
Цветовое пространство : YUV
Субдискретизация насыщенности : 4:2:0
Битовая глубина : 8 бит
Тип развёртки : Прогрессивная
Порядок развёртки : Верхнее поле первое
Метод сжатия : С потерями
Основные цвета : BT.601 NTSC
Характеристики трансфера : BT.601
Коэффициенты матрицы : BT.601

Текст
Идентификатор : 189 (0xBD)-32 (0x20)
Формат : RLE
Формат/Информация : Run-length encoding
Режим смешивания : DVD-Video
Задержка видео : 22 мс.

Меню

Общее
Полное имя : D:\lib\self\violine\С.Шальман_Я буду скрипачом\Я буду скрипачом_13-15_DVD5\VIDEO_TS\VTS_01_1.VOB
Формат : MPEG-PS
Размер файла : 1024 Мбайт
Продолжительность : 56 м.
Общий поток : 2547 Кбит/сек

Видео
Идентификатор : 224 (0xE0)
Формат : MPEG Video
Версия формата : Version 2
Профиль формата : Main@Main
Параметр BVOP формата : Да
Параметр матрицы формата : По умолчанию
Параметр GOP формата : M=3, N=12
Продолжительность : 56 м.
Битрейт : 2330 Кбит/сек
Ширина : 720 пикселей
Высота : 576 пикселей
Соотношение сторон : 4:3
Частота кадров : 25,000 кадров/сек
Стандарт вещания : PAL
Цветовое пространство : YUV
Субдискретизация насыщенности : 4:2:0
Битовая глубина : 8 бит
Тип развёртки : Прогрессивная
Метод сжатия : С потерями
Бит/(Пиксели*Кадры) : 0.225
Временной код первого кадра : 00:00:00:00
Оригинал временного кода : Group of pictures header
Размер потока : 939 Мбайт (92%)

Аудио
Идентификатор : 192 (0xC0)
Формат : MPEG Audio
Версия формата : Version 1
Профиль формата : Layer 2
Продолжительность : 56 м.
Вид битрейта : Постоянный
Битрейт : 160 Кбит/сек
Каналы : 2 канала
Частота : 48,0 КГц
Метод сжатия : С потерями
Задержка видео : -80 мс.
Размер потока : 64,3 Мбайт (6%)

Меню

Общее
Полное имя : D:\lib\self\violine\С.Шальман_Я буду скрипачом\Я буду скрипачом_13-15_DVD5\VIDEO_TS\VTS_01_2.VOB
Формат : MPEG-PS
Размер файла : 1024 Мбайт
Продолжительность : 56 м.
Общий поток : 2547 Кбит/сек

Видео
Идентификатор : 224 (0xE0)
Формат : MPEG Video
Версия формата : Version 2
Профиль формата : Main@Main
Параметр BVOP формата : Да
Параметр матрицы формата : По умолчанию
Параметр GOP формата : M=3, N=12
Продолжительность : 56 м.
Битрейт : 2330 Кбит/сек
Ширина : 720 пикселей
Высота : 576 пикселей
Соотношение сторон : 4:3
Частота кадров : 25,000 кадров/сек
Стандарт вещания : PAL
Цветовое пространство : YUV
Субдискретизация насыщенности : 4:2:0
Битовая глубина : 8 бит
Тип развёртки : Прогрессивная
Метод сжатия : С потерями
Бит/(Пиксели*Кадры) : 0.225
Временной код первого кадра : 00:56:12:12
Оригинал временного кода : Group of pictures header
Размер потока : 939 Мбайт (92%)

Аудио
Идентификатор : 192 (0xC0)
Формат : MPEG Audio
Версия формата : Version 1
Профиль формата : Layer 2
Продолжительность : 56 м.
Вид битрейта : Постоянный
Битрейт : 160 Кбит/сек
Каналы : 2 канала
Частота : 48,0 КГц
Метод сжатия : С потерями
Задержка видео : -368 мс.
Размер потока : 64,3 Мбайт (6%)

Меню

Общее
Полное имя : D:\lib\self\violine\С.Шальман_Я буду скрипачом\Я буду скрипачом_13-15_DVD5\VIDEO_TS\VTS_01_3.VOB
Формат : MPEG-PS
Размер файла : 1024 Мбайт
Продолжительность : 56 м.
Общий поток : 2547 Кбит/сек

Видео
Идентификатор : 224 (0xE0)
Формат : MPEG Video
Версия формата : Version 2
Профиль формата : Main@Main
Параметр BVOP формата : Да
Параметр матрицы формата : По умолчанию
Параметр GOP формата : M=3, N=12
Продолжительность : 56 м.
Битрейт : 2330 Кбит/сек
Ширина : 720 пикселей
Высота : 576 пикселей
Соотношение сторон : 4:3
Частота кадров : 25,000 кадров/сек
Стандарт вещания : PAL
Цветовое пространство : YUV
Субдискретизация насыщенности : 4:2:0
Битовая глубина : 8 бит
Тип развёртки : Прогрессивная
Метод сжатия : С потерями
Бит/(Пиксели*Кадры) : 0.225
Временной код первого кадра : 01:52:24:12
Оригинал временного кода : Group of pictures header
Размер потока : 939 Мбайт (92%)

Аудио
Идентификатор : 192 (0xC0)
Формат : MPEG Audio
Версия формата : Version 1
Профиль формата : Layer 2
Продолжительность : 56 м.
Вид битрейта : Постоянный
Битрейт : 160 Кбит/сек
Каналы : 2 канала
Частота : 48,0 КГц
Метод сжатия : С потерями
Задержка видео : -152 мс.
Размер потока : 64,3 Мбайт (6%)

Меню

Общее
Полное имя : D:\lib\self\violine\С.Шальман_Я буду скрипачом\Я буду скрипачом_13-15_DVD5\VIDEO_TS\VTS_01_4.VOB
Формат : MPEG-PS
Размер файла : 1024 Мбайт
Продолжительность : 56 м.
Общий поток : 2547 Кбит/сек

Видео
Идентификатор : 224 (0xE0)
Формат : MPEG Video
Версия формата : Version 2
Профиль формата : Main@Main
Параметр BVOP формата : Да
Параметр матрицы формата : По умолчанию
Параметр GOP формата : M=3, N=12
Продолжительность : 56 м.
Битрейт : 2330 Кбит/сек
Ширина : 720 пикселей
Высота : 576 пикселей
Соотношение сторон : 4:3
Частота кадров : 25,000 кадров/сек
Стандарт вещания : PAL
Цветовое пространство : YUV
Субдискретизация насыщенности : 4:2:0
Битовая глубина : 8 бит
Тип развёртки : Прогрессивная
Метод сжатия : С потерями
Бит/(Пиксели*Кадры) : 0.225
Временной код первого кадра : 02:48:36:12
Оригинал временного кода : Group of pictures header
Размер потока : 939 Мбайт (92%)

Аудио
Идентификатор : 192 (0xC0)
Формат : MPEG Audio
Версия формата : Version 1
Профиль формата : Layer 2
Продолжительность : 56 м.
Вид битрейта : Постоянный
Битрейт : 160 Кбит/сек
Каналы : 2 канала
Частота : 48,0 КГц
Метод сжатия : С потерями
Задержка видео : -104 мс.
Размер потока : 64,3 Мбайт (6%)

Меню

Общее
Полное имя : D:\lib\self\violine\С.Шальман_Я буду скрипачом\Я буду скрипачом_13-15_DVD5\VIDEO_TS\VTS_01_5.VOB
Формат : MPEG-PS
Размер файла : 252 Мбайт

Видео
Идентификатор : 224 (0xE0)
Формат : MPEG Video
Версия формата : Version 2
Профиль формата : Main@Main
Параметр BVOP формата : Да
Параметр матрицы формата : По умолчанию
Параметр GOP формата : M=3, N=12
Максимальный битрейт : 2330 Кбит/сек
Ширина : 720 пикселей
Высота : 576 пикселей
Соотношение сторон : 4:3
Частота кадров : 25,000 кадров/сек
Стандарт вещания : PAL
Цветовое пространство : YUV
Субдискретизация насыщенности : 4:2:0
Битовая глубина : 8 бит
Тип развёртки : Прогрессивная
Метод сжатия : С потерями
Временной код первого кадра : 03:44:48:24
Оригинал временного кода : Group of pictures header

Аудио
Идентификатор : 192 (0xC0)
Формат : MPEG Audio
Версия формата : Version 1
Профиль формата : Layer 2
Вид битрейта : Постоянный
Битрейт : 160 Кбит/сек
Каналы : 2 канала
Частота : 48,0 КГц
Метод сжатия : С потерями
Задержка видео : -296 мс.

Меню
Скриншоты:



Время раздачи: 24/7 по возможности

ia_archiver - Лучшая благодарность поделиться ссылкой с друзьями в соц. сетях

Постеры

Соцсети

 

  • Похожие торренты
    Ответы
    Просмотры
    Последнее сообщение

Вернуться в Музыка



Кто сейчас на конференции

Сейчас эту тему просматривают: ia_archiver и гости: 0