Видео


Сообщение

Видео Wikisound.org | Fl Studio 12 с нуля и до эксперта (2015) PCRec [H.264/720p]

Сообщение Nik » 15 авг 2016, 11:47

Wikisound | Fl Studio 12 с нуля и до эксперта (2015) PCRec

Автор (режиссер): Сергей Live
Жанр: Работа со звуком

Описание:
В этом видео курсе вы узнаете о всех функциях FL studio не только в теории, но и научитесь применять возможности секвенсора в практике. Информация преподносится системно и с подробным описанием на примерах.

1. После изучения всех возможностей программы вы больше не будете терять время вашего творческого вдохновения, потому как не будете мучиться в поиске реализации той или иной идеи.
2. Работа заметно ускорится. Ничто в наше время не может быть ценнее такого ресурса как время!
3. В ваших руках окажется мощнейший инструмент по написанию музыки!
4. Благодаря изучению всех возможностей программы, у вас появится множество новых идей и вы получите новый творческий толчок.
5.Больше не будет необходимости задавать кому либо вопросы о том, как сделать что-то в программе, их можно будет задавать вам.
6.В вашей власти окажется инструмент, который используют очень многие звёзды музыкальной индустрии.
7.Вы будете знать о всех функциях программы!
00-Руководство по быстрому старту (введение)
Браузер файлов
01 Параметры браузера
02 Работа с содержимым
03 Меню браузера
04 Папки браузера
05 Папка текущего проекта
06 Папка базы данных плагинов
07 Сборник плагинов
Стойка инструментов и пошаговый секвенсор
08 Меню опций выбранного инструмента
09 Фильтр отображаемых инструментов
10 Глобальный свинг, режимы отображения
11 Настройки, кнопки и выбор инструментов
12 Меню кнопки инструментов и количество шагов
13 Потерянные звуки
Пианоролл
14 Параметры пианоролла
15 Использование пианоролла
16 Редактор событий пианоролла
17 Ноты скольжения и потраменто
18 Цветовые группы нот
19 Окно свойств ноты
20 Меню пианоролла
20-2 Маркеры пианоролла
Инструменты пианоролл
21 Артикулятор (работа с длительностью)
22 Квантователь (выравнивание нот)
23 Нож (нарезка нот)
24 Арпеджиатор
25 Бренчание (для струн)
Окно сессии
26 Форшлаг (для барабанов)
27 Дробление (барабанная дробь)
28 Ограничение нот
29 Отражение (переворачивание нот)
30 Рандомайзер (случайные ноты)
31 Масштабирование уровней событий
32 LFO событий
33 Риф машина (генератор музыки)
Настройки инструментов
34 Основные элементы управления
35 Раздел огибающей
36 Раздел LFO
37 Раздел фильтрации
38 Раздел уровней
39 Раздел полифонии
40 Раздел времени
41 Раздел отслеживания клавиатуры и велосити
42 Раздел групп
43 Раздел арпеджиатора
44 Раздел эхо
45 Раздел клавиш
Плейлист
46 Интерфейс плейлиста
47 Треки
48 Работа с содержимым плейлиста
49 Фокусировка на клипах
50 Аудио клипы
51 Клипы автоматизаций
52 Паттерн клипы
53 Сборник проекта
54 Максимальное разрешение плейлиста
Режим выступления
55 Настройка режима выступления в проекте
56 Работа с режимом выступления
57 Опции треков режима выступления
58 Сцены и группы
59 Полезные опции и настройки
60 Внешнее управление
61 Работа с маркерами
62 Меню плейлиста
Микшер
63 Маршрутизация инструментов на каналы микшера
64 Обзор параметров окна
65 Обработка эффектами
66 Индивидуальные параметры канала
67 Общие параметры каналов
68 Внутреняя маршрутизация
69 Каналы посыла-возврата
70 Мастер канал
71 Текущий канал (для анализаторов)
72 Меню канала
73 Меню микшера
Редактор событий
74 Как работает редактор событий
75 Меню редактора событий
Привязка контроллеров
76 Локальные временные связи
77 Множественные связи
78 Глобальные постоянные связи
79 Изменчивая связь
80 Привязка внутренних контроллеров
81 Окно настроек дистанционного управления
Запись
82 Подготовка к записи
Запись звука
83 Процедура быстрой записи в Edison
84 Запись с использованием плейлиста
85 Зацикленная запись
86 Создание мультитрека (заморозка каналов)
87 Запись нот
88 Пошаговая запись нот
89 Запись автоматизации
90 Меню выбора записи
Оболочка плагинов
91 Меню оболочки
92 Настройки VST оболочки
93 Настройки VST оболочки Processing
Связка с хостом
94 ReWire
95 FL Studio в качестве VSTi плагина
Панели
96 Работа с панелями
97 Главная панель
98 Транспортная панель
99 Панель записи
100 Панель времени
101 Панель паттернов
102 Панель мониторинга
103 Панель ярлыков
104 Панель процессора
105 Онлайн панель
Настройки
106 Настройки MIDI
107 Настройки Audio
108 Настройки General
109 Настройки File
110 Общие настройки проекта
111 Информация о проекте
112 Лог Debug и About
Главное меню
113 Меню File
114 Меню Edit
115 Меню Add
116 Меню View
117 Меню Options
118 Меню Tools и ?
Сохранение в различные форматы
119 Экспорт в .wav .mp3 .ogg и мультитрекс
120 Опции для лупов
121 Экспорт в MIDI
Разное
122 Импорт MIDI файлов
123 Меню ручки, переключателей, фейдеров
Продолжительность: 12:52:17
Качество видео: PCRec

Видео: AVC/H.264, 1280x720, ~682 Kbps
Аудио: AAC, 2 ch, 317 Kbps
Код:
Код: Выделить всё
Complete name               : E:\video Tutorial\FL Studio 12 Wikisounds\00-Руководство по быстрому старту (введение)\00-Руководство по быстрому старту (введение).mp4
Format                      : QuickTime
Format/Info                 : Original Apple specifications
File size                   : 1.27 GiB
Duration                    : 1h 59mn
Overall bit rate mode       : Variable
Overall bit rate            : 1 517 Kbps
Writing application         : Lavf56.40.101

Video
ID                          : 1
Format                      : AVC
Format/Info                 : Advanced Video Codec
Format profile              :
Format settings, CABAC      : No
Format settings, ReFrames   : 2 frames
Codec ID                    : avc1
Codec ID/Info               : Advanced Video Coding
Duration                    : 1h 59mn
Bit rate                    : 1 195 Kbps
Width                       : 1 280 pixels
Height                      : 720 pixels
Display aspect ratio        : 16:9
Frame rate mode             : Variable
Frame rate                  : 25.000 fps
Minimum frame rate          : 25.000 fps
Maximum frame rate          : 25.025 fps
Standard                    : NTSC
Color space                 : YUV
Chroma subsampling          : 4:2:0
Bit depth                   : 8 bits
Scan type                   : Progressive
Bits/(Pixel*Frame)          : 0.052
Stream size                 : 1 021 MiB (79%)
Language                    : English
Color range                 : Limited
Color primaries             : BT.709
Transfer characteristics    : BT.709
Matrix coefficients         : BT.709

Audio
ID                          : 2
Format                      : AAC
Format/Info                 : Advanced Audio Codec
Format profile              : LC
Codec ID                    : 40
Duration                    : 1h 59mn
Bit rate mode               : Variable
Bit rate                    : 317 Kbps
Maximum bit rate            : 416 Kbps
Channel(s)                  : 2 channels
Channel positions           : Front: L R
Sampling rate               : 48.0 KHz
Frame rate                  : 46.875 fps (1024 spf)
Compression mode            : Lossy
Stream size                 : 271 MiB (21%)
Language                    : English
Default                     : Yes
Alternate group             : 1
Отсутствуют файлы к урокам, в раздаче только видео!

Скриншоты:



Время раздачи: до 10 скачавших (до появления первых 3-5 скачавших)

YandexBot - Лучшая благодарность поделиться ссылкой с друзьями в соц. сетях

Постеры

Соцсети

 

  • Похожие торренты
    Ответы
    Просмотры
    Последнее сообщение

Вернуться в Музыка



Кто сейчас на конференции

Сейчас эту тему просматривают: ameteras008, YandexBot и гости: 0