Видео


Сообщение

Видео Groove3 | Музыкальная Теория Для Всех (Части 1-3) (2015) PCRec [H.264]

Сообщение Nik » 15 авг 2016, 11:48

Groove3 | Музыкальная Теория Для Всех (Части 1-3) (2015) PCRec [H.264]

Автор (режиссер): Groove3
Жанр: Видеокурс

Описание:
В этом курсе вы узнаете всю необходимую информацию о музыкальной грамоте, которую преподают в музыкальных школах и училищах.
Эти 30 уроков рассчитаны на новичков, но по их завершении вы будете способны легко общаться с музыкантами, композиторами и продюсерами на профессиональном языке Музыки. Начав с нуля изучать этот курс, вы узнаете названия нот, как их записывать на нотном стане; узнаете все о ключах, гаммах, интервалах, темпе и размере; как строить сложные аккорды, арпеджио и многое другое.

Продолжительность: 04:37:31
Качество видео: PCRec

Видео: AVC/H.264, 880x660, ~836 Kbps
Аудио: AC-3, 192 Kbps (CBR), 48.0 KHz
01. Введение в понятие звук
02. Ноты и их названия
03. Нотный стан и ключи
04. Мажорная гамма
05. Интервалы
06. Знаки при ключе. Квинтовый круг
07. Ритм и размер
08. Длительность нот
09. Восьмые и шестнадцатые ноты
10. Паузы
11. Ноты с точками
12. Триоли и Темп
13. Грувы
14. Использование мажорной гаммы
15. Гамма натурального минора
16. Гаммы гармонического и мелодического минора
17. Гармония
18. Диатонические трезвучия и ступени
19. Трезвучия минорной гаммы
20. Обращения трезвучий
21. Арпеджио и не только
22. Распределение голосов и инверсии
23. Анализ мелодии
24. Побочная доминанта
25. Септаккорды
26. Каденция и модуляция
27. Другие гаммы
28. Нотация
29. Лады
30. Поиграем!
Код:
Код: Выделить всё
Общее
Уникальный идентификатор                 : 204296485821451365339789031192103093561 (0x99B2126BD13B12DA9C6AF1C7508E0539)
Полное имя                               : D:\Музыкальная Теория Для Всех (Части 1-3)\Groove1\01 - Введение в понятие -звук.mp4
Формат                                   : Matroska
Версия формата                           : Version 4 / Version 2
Размер файла                             : 20,7 Мбайт
Продолжительность                        : 8 м. 24 с.
Общий поток                              : 344 Кбит/сек
Дата кодирования                         : UTC 2015-02-08 14:54:59
Программа кодирования                    : mkvmerge v7.3.0 ('Nouages') 64bit built on Oct 22 2014 18:53:34
Библиотека кодирования                   : libebml v1.3.0 + libmatroska v1.4.1
DURATION                                 : 00:08:23.400000000
NUMBER_OF_FRAMES                         : 7551
NUMBER_OF_BYTES                          : 9505271
_STATISTICS_WRITING_APP                  : mkvmerge v7.3.0 ('Nouages') 64bit built on Oct 22 2014 18:53:34
_STATISTICS_WRITING_DATE_UTC             : 2015-02-08 14:54:59
_STATISTICS_TAGS                         : BPS DURATION NUMBER_OF_FRAMES NUMBER_OF_BYTES

Видео
Идентификатор                            : 2
Формат                                   : AVC
Формат/Информация                        : Advanced Video Codec
Профиль формата                          :
Параметр CABAC формата                   : Нет
Параметр ReFrames формата                : 2 кадра
Идентификатор кодека                     : V_MPEG4/ISO/AVC
Продолжительность                        : 8 м. 24 с.
Битрейт                                  : 145 Кбит/сек
Ширина                                   : 880 пикселей
Высота                                   : 660 пикселей
Соотношение сторон                       : 4:3
Режим частоты кадров                     : Постоянный
Частота кадров                           : 15,000 кадров/сек
Цветовое пространство                    : YUV
Субдискретизация насыщенности            : 4:2:0
Битовая глубина                          : 8 бит
Тип развёртки                            : Прогрессивная
Бит/(Пиксели*Кадры)                      : 0.017
Размер потока                            : 8,73 Мбайт (42%)
Default                                  : Да
Forced                                   : Нет
Цветовой диапазон                        : Limited
Основные цвета                           : BT.709
Характеристики трансфера                 : BT.709
Коэффициенты матрицы                     : BT.709

Аудио
Идентификатор                            : 1
Формат                                   : AC-3
Формат/Информация                        : Audio Coding 3
Расширение режима                        : CM (complete main)
Параметр Endianness формата              : Big
Идентификатор кодека                     : A_AC3
Продолжительность                        : 8 м. 24 с.
Вид битрейта                             : Постоянный
Битрейт                                  : 192 Кбит/сек
Каналы                                   : 2 канала
Расположение каналов                     : Front: L R
Частота                                  : 48,0 КГц
Метод сжатия                             : С потерями
Размер потока                            : 11,5 Мбайт (56%)
Заголовок                                : Русский (перевод Алексея Лыдина)
Язык                                     : Russian
Default                                  : Да
Forced                                   : Нет

Скриншоты:



Время раздачи: c 9:00 до 23:00(по мск)

CCBot - Лучшая благодарность поделиться ссылкой с друзьями в соц. сетях

Постеры

Соцсети

 

  • Похожие торренты
    Ответы
    Просмотры
    Последнее сообщение

Вернуться в Музыка



Кто сейчас на конференции

Сейчас эту тему просматривают: CCBot и гости: 0