Максим Кучма | Профессиональная ретушь. Панель «APs RETOUCH» (2016) PCRec [H.264/720p]

Обучающие материалы по работе с мультимедийными материалами
Торрент Сидеров Личеров Размер
torrent_888024.torrent
5 0 717.89 МБ
Аватара пользователя
Nik
Сообщения: 25935
Зарегистрирован: 05 ноя 2011, 22:02

Максим Кучма | Профессиональная ретушь. Панель «APs RETOUCH» (2016) PCRec [H.264/720p]

Сообщение Nik » 26 авг 2017, 17:05

Максим Кучма | Профессиональная ретушь. Панель «APs RETOUCH» (2016) PCRec [H.264/720p]

Автор (режиссер): Максим Кучма
Жанр: Ретушь фото

Добавлена панель для PS CC2017!

Описание:
Расширенный набор профессиональных инструментов для фотографов и ретушёров любого уровня подготовки! С его помощью Вы сможете невероятно быстро и с высочайшим качеством выполнять:

- ПОТОКОВУЮ обработку и ретушь больших групп изображений,
- УГЛУБЛЁННУЮ портретную ретушь журнального уровня.

Панель «APs RETOUCH» не похожа ни на один другой инструмент. Простой привычный интерфейс в сочетании с мощной начинкой делают её невероятно гибкой и удобной в работе. В полном объёме её преимуществ нет больше ни в одном подобном продукте.

Работает на МАС и Windows, во всех версиях программы Photoshop линейки Creative Cloud: СС, СС2014, СС2015, СС2015.5

Продолжительность: 01:39:28
Качество видео: PCRec

Видео: AVC/H.264, 1280*720, ~201 kb/s
Аудио: AAC, 2 ch, 126 kb/s, VBR

Код: Выделить всё

General
Complete name               : G:\Максим Кучма  - APs RETOUCH\Видео\Панель APs RETOUCH 01. Как установить и настроить.mp4
Format                      : MPEG-4
Format profile              : Base Media / Version 2
Codec ID                    : mp42 (isom/mp42)
File size                   : 41.4 MiB
Duration                    : 17 min
Overall bit rate mode       : Variable
Overall bit rate            : 331 kb/s
Encoded date                : UTC 2016-05-03 20:18:45
Tagged date                 : UTC 2016-05-03 20:18:45
gsst                        : 0
gstd                        : 1051097

Video
ID                          : 1
Format                      : AVC
Format/Info                 : Advanced Video Codec
Format profile              : 
Format settings, CABAC      : Yes
Format settings, ReFrames   : 3 frames
Codec ID                    : avc1
Codec ID/Info               : Advanced Video Coding
Duration                    : 17 min
Bit rate                    : 201 kb/s
Width                       : 1 280 pixels
Height                      : 720 pixels
Display aspect ratio        : 16:9
Frame rate mode             : Constant
Frame rate                  : 30.000 FPS
Color space                 : YUV
Chroma subsampling          : 4:2:0
Bit depth                   : 8 bits
Scan type                   : Progressive
Bits/(Pixel*Frame)          : 0.007
Stream size                 : 25.2 MiB (61%)
Title                       : ISO Media file produced by Google Inc.
Encoded date                : UTC 2016-05-03 20:18:45
Tagged date                 : UTC 2016-05-03 20:18:45
Color range                 : Limited
Color primaries             : BT.709
Transfer characteristics    : BT.709
Matrix coefficients         : BT.709

Audio
ID                          : 2
Format                      : AAC
Format/Info                 : Advanced Audio Codec
Format profile              : LC
Codec ID                    : 40
Duration                    : 17 min
Bit rate mode               : Variable
Bit rate                    : 126 kb/s
Channel(s)                  : 2 channels
Channel positions           : Front: L R
Sampling rate               : 44.1 kHz
Frame rate                  : 43.066 FPS (1024 spf)
Compression mode            : Lossy
Stream size                 : 15.7 MiB (38%)
Title                       : ISO Media file produced by Google Inc.
Скриншоты:


Время раздачи: С 10:00 до 00:00 (до появления первых 3-5 скачавших)
У вас нет необходимых прав для просмотра вложений в этом сообщении.

TOPIC_VIEWER - Лучшая благодарность поделиться ссылкой с друзьями в соц. сетях

Аватара пользователя
ывопа
Сообщения: 1
Зарегистрирован: 04 апр 2019, 09:48

Re: Максим Кучма | Профессиональная ретушь. Панель «APs RETOUCH» (2016) PCRec [H.264/720p]

Сообщение ывопа » 04 апр 2019, 09:50

где ссылка

Аватара пользователя
Stepan
Администратор
Сообщения: 51624
Зарегистрирован: 05 ноя 2011, 20:36

Re: Максим Кучма | Профессиональная ретушь. Панель «APs RETOUCH» (2016) PCRec [H.264/720p]

Сообщение Stepan » 06 апр 2019, 22:11

смотрите выше