Оксана Долинка | Английский за 4 недели - 2 в 1 (2013) DVDRip [H.264]

Видео уроки, книги, учебники различной тематики
Торрент Сидеров Личеров Размер
torrent_841165.torrent
3 1 7.51 ГБ
Аватара пользователя
Stepan
Администратор
Сообщения: 52267
Зарегистрирован: 05 ноя 2011, 20:36

Оксана Долинка | Английский за 4 недели - 2 в 1 (2013) DVDRip [H.264]

Сообщение Stepan » 19 янв 2018, 22:52

Оксана Долинка | Английский за 4 недели - 2 в 1 (2013) DVDRip [H.264]

Автор (режиссер): Оксана Долинка
Жанр: Английский язык

Описание:
"АНГЛИЙСКИЙ ЗА 4 НЕДЕЛИ - 2 в 1" – это комплексная программа, обучающая современному английскому языку начинающих быстро, легко и с удовольствием!

Она включает в себя два полноценных курса: Видео-Курс "Английский За 4 Недели" и Аудио-Курс "Современный Английский Для Начинающих" тем самым помогая вам одновременно "охватить" английский язык со всех сторон, используя как видео-, так и аудио-материал.

Видео-Курс и Аудио-Курс - это два РАЗНЫХ, ВЗАИМОДОПОЛНЯЮЩИХ КУРСА, которые помогут вам научиться, в первую очередь, говорить по-английски и понимать английскую речь.

Также вы найдете для себя Видео-Словари, помогающие пополнить ваш запас английских слов на различные темы, и Очень Обрадующие вас бонусы, включая Английский По Фильмам.

Продолжительность: 48:48:27
Качество видео: DVDRip

Видео: AVC/H.264, 640х480, ~801 Kbps
Аудио: AAC, 2 ch, 128 Kbps, CBR
Код:

Код: Выделить всё

General
Complete name                            : C:\Torrents\Оксана Долинка - Английский за 4 недели - 2 в 1 (2013)\1-я неделя\00 - ВСТУПЛЕНИЕ .mp4
Format                                   : MPEG-4
Format profile                           : Base Media / Version 2
Codec ID                                 : mp42
File size                                : 41.3 MiB
Duration                                 : 6mn 11s
Overall bit rate                         : 934 Kbps
Encoded date                             : UTC 2013-06-25 07:33:53
Tagged date                              : UTC 2013-06-25 07:33:53

Video
ID                                       : 2
Format                                   : AVC
Format/Info                              : Advanced Video Codec
Format profile                           : 
Format settings, CABAC                   : Yes
Format settings, ReFrames                : 2 frames
Codec ID                                 : avc1
Codec ID/Info                            : Advanced Video Coding
Duration                                 : 6mn 11s
Bit rate                                 : 801 Kbps
Width                                    : 640 pixels
Height                                   : 480 pixels
Display aspect ratio                     : 4:3
Frame rate mode                          : Constant
Frame rate                               : 29.970 fps
Standard                                 : NTSC
Color space                              : YUV
Chroma subsampling                       : 4:2:0
Bit depth                                : 8 bits
Scan type                                : Progressive
Bits/(Pixel*Frame)                       : 0.087
Stream size                              : 35.4 MiB (86%)
Language                                 : English
Encoded date                             : UTC 2013-06-25 07:33:53
Tagged date                              : UTC 2013-06-25 07:33:53

Audio
ID                                       : 1
Format                                   : AAC
Format/Info                              : Advanced Audio Codec
Format profile                           : LC
Codec ID                                 : 40
Duration                                 : 6mn 11s
Bit rate mode                            : Constant
Bit rate                                 : 128 Kbps
Channel(s)                               :  channel0
Channel(s)_Original                      : 2 channels
Channel positions                        : Front: L R
Sampling rate                            : 48.0 KHz
Compression mode                         : Lossy
Stream size                              : 5.67 MiB (14%)
Language                                 : English
Encoded date                             : UTC 2013-06-25 07:33:53
Tagged date                              : UTC 2013-06-25 07:33:53
Видео-Курс
содержит 52 видео по 30 мин

Увлекательные видео-уроки длительностью 25-30 минут;
- Яркие картинки, видео-вставки, позволяющие вам запоминать новые слова и фразы намного быстрее и делающие ваши занятие более интересными;
- Четкая система занятий, постоянное повторение пройденного материала;
- Возможность слышать английскую речь как неносителей, так и носителей языка;
- 8 дополнительных Видео-Словарей на нужные вам темы;
- 2 Бонусных видео;
- 3 Видео Английского По Фильмам

Аудио-Курс
содержит 90 аудио-уроков по 10 мин

Короткие аудио-уроки длительностью 10-12 минут;
- Возможность слушать уроки и заниматься английским в любое время и в любом месте, используя лишь телефон: за рулем, в спортзале, во время прогулки, на работе, в командировке, во время работы по дому, в поезде, самолете, автобусе и т.п.
- Легкие и доступные объяснения;
- Четкая система занятий;
- Постоянное повторение материала;
- Постоянная тренировка говорения;
- Постоянная тренировка понимания английской речи;
- Диалоги носителей языка

ВАЖНО!
Аудио-Курс "Современный Английский Для Начинающих" - это НЕ аудио-версия видео-программы "Английский За 4 Недели". Это отдельный полноценный курс, который является частью комплексного обучения программы "Английский За 4 Недели - 2 в 1", чтобы сделать ваше обучение МАКСИМАЛЬНО ЭФФЕКТИВНЫМ и обеспечить вам ГАРАНТИРОВАНЫЙ РЕЗУЛЬТАТ с первых же уроков.
Скриншоты:


Время раздачи: с 20:00 до 23:00 (до появления первых 3-5 скачавших)
У вас нет необходимых прав для просмотра вложений в этом сообщении.

Аватара пользователя
sittimm
Сообщения: 1
Зарегистрирован: 15 май 2019, 10:07

Re: Оксана Долинка | Английский за 4 недели - 2 в 1 (2013) DVDRip [H.264]

Сообщение sittimm » 15 май 2019, 11:10

Спасибо!!!