Сообщение

Метод Гросса. Мини-гато / Método Gross.Mini Gateaux [2009, ТВ-шоу, кулинария, SATRip, RUS] (Видеоурок)

Сообщение Stepan » 18 сен 2016, 23:22

Метод Гросса. Мини-гато / Método Gross.Mini Gateaux

Страна: Аргентина
Тематика: ТВ-шоу, кулинария
Тип раздаваемого материала: Видеоурок
Продолжительность: ~ 00:27:00
Год выпуска: 2009

Язык: Русский
Перевод: Профессиональный (одноголосый)

Описание: Освальдо Гросс, как никто другой, разбирается в сладостях и готов поделиться с вами своим мастерством.

Релиз:
Tarjaa

MediaInfo:
General
Complete name : \Método Gross.Mini Gateaux\Método Gross.Mini Gateaux.V.12_Tarjaa.avi
Format : AVI
Format/Info : Audio Video Interleave
File size : 335 MiB
Duration : 25mn 27s
Overall bit rate : 1 838 Kbps
Writing application : VirtualDubMod 1.5.10.3 | www.virtualdub-fr.org || (build 2550/release)
Writing library : VirtualDubMod build 2550/release

Video
ID : 0
Format : MPEG-4 Visual
Format profile : Advanced Simple@L5
Format settings, BVOP : 1
Format settings, QPel : No
Format settings, GMC : No warppoints
Format settings, Matrix : Default (H.263)
Codec ID : XVID
Codec ID/Hint : XviD
Duration : 25mn 27s
Bit rate : 1 700 Kbps
Width : 720 pixels
Height : 480 pixels
Display aspect ratio : 3:2
Frame rate : 25.000 fps
Standard : NTSC
Color space : YUV
Chroma subsampling : 4:2:0
Bit depth : 8 bits
Scan type : Progressive
Compression mode : Lossy
Bits/(Pixel*Frame) : 0.197
Stream size : 309 MiB (93%)
Writing library : XviD 1.2.1 (UTC 2008-12-04)

Audio
ID : 1
Format : MPEG Audio
Format version : Version 1
Format profile : Layer 3
Codec ID : 55
Codec ID/Hint : MP3
Duration : 25mn 27s
Bit rate mode : Constant
Bit rate : 128 Kbps
Channel count : 2 channels
Sampling rate : 48.0 KHz
Compression mode : Lossy
Stream size : 23.3 MiB (7%)
Alignment : Aligned on interleaves
Interleave, duration : 40 ms (1.00 video frame)
Interleave, preload duration : 504 ms
Writing library : LAME3.98r
Encoding settings : -m s -V 4 -q 2 -lowpass 17 -b 128
Качество: SATRip
Формат: AVI
Видео кодек: XviD
Аудио кодек: MP3
Видео: Xvid 720x480 25.00fps Bit rate: ~ 1 700 Kbps
Аудио: MPEG Audio Layer 3 48000Hz stereo 128kbps [Stream 01]

Постеры

Соцсети

 

Статистика

Автор: Stepan
Добавлен: 18 сен 2016, 23:22
Размер: 4.4 ГБ
Размер: 4 722 552 832 байт
Сидеров: 5
Личеров: 1
Скачали: 0
Здоровье: 100%
Раздающих: 100%
Статус:
Скорость скачивания: 0 байт/сек
Скорость раздачи: 0 байт/сек
Последний сидер: 8 месяцев 19 дней 14 часов 48 минут 47 секунд назад
Последний личер: 8 месяцев 19 дней 14 часов 48 минут 47 секунд назад
Приватный: Нет (DHT включён)
Кулинария Скачать торрент
Скачать торрент
[ Размер 23.44 КБ / Просмотров 0 ]

Поделиться



  • Похожие торренты
    Ответы
    Просмотры
    Последнее сообщение

Вернуться в Кулинария