Сообщение

Кулинарный поединок с Джейми Оливером (сезон 2-3) / Jamie and Jimmys Friday Night feast (c1: 1-6 из 1-6; c2: 1-6 из 1-6) [2014, Кулинарное шоу, HDTV, RUS/ENG]

Сообщение Stepan » 18 сен 2016, 23:22

Кулинарный поединок с Джейми Оливером (сезон 2-3) / Jamie and Jimmys Friday Night feast (season 1-2)

Страна: Соединённое королевство Великобритании и Северной Ирландии
Тематика: Кулинарное шоу
Тип раздаваемого материала: Видеоурок
Продолжительность: 00:45:20
Год выпуска: 2014

Язык: Русский + Английский
Перевод: Профессиональный (многоголосый, закадровый)


Язык субтитров: нет
Описание: Джейми Оливер и Джимми Доэрти дружат со школьной скамьи. Оба всегда любили вкусно поесть. Теперь, когда они оба повзрослели и вернулись в родной Эссекс, они открыли небольшое кафе.

Вкусная еда от Джейми, немного науки от Джимми и встречи с очень особенными друзьями, среди которых Гвинет Пэлтроу, Алан Карр, Гари Барлоу и Джонатан Росс.

Качество: HDTV
Формат: TS
Видео кодек: H.264
Аудио кодек: MP2
Видео: MPEG4 Video (H264) 1920x1080 25fps [V: h264 main L4.0, yuv420p, 1920x1080]
Аудио: MP2, 48.0 KHz, 2 ch, 160 Kbps, CBR
Аудио 2: MP2, 48.0 KHz, 2 ch, 160 Kbps, CBR
Код:
Код: Выделить всё
General
ID                                       : 1 (0x1)
Complete name                            : E:\Jamie\Jamie and Jimmy's Food Fight Club HD\Jamie.And.Jimmys.Food.Fight.Club.S01E04.HDTV.ts
Format                                   : MPEG-TS
File size                                : 2.51 GiB
Duration                                 : 45mn 27s
Overall bit rate mode                    : Variable
Overall bit rate                         : 7 904 Kbps
Maximum Overall bit rate                 : 35.5 Mbps

Video
ID                                       : 4113 (0x1011)
Menu ID                                  : 1 (0x1)
Format                                   : AVC
Format/Info                              : Advanced Video Codec
Format profile                           : Main@L4.0
Format settings, CABAC                   : Yes
Format settings, ReFrames                : 4 frames
Format settings, GOP                     : M=3, N=12
Codec ID                                 : 27
Duration                                 : 45mn 27s
Bit rate mode                            : Variable
Bit rate                                 : 7 190 Kbps
Maximum bit rate                         : 40.0 Mbps
Width                                    : 1 920 pixels
Height                                   : 1 080 pixels
Display aspect ratio                     : 16:9
Frame rate                               : 25.000 fps
Color space                              : YUV
Chroma subsampling                       : 4:2:0
Bit depth                                : 8 bits
Scan type                                : MBAFF
Bits/(Pixel*Frame)                       : 0.139
Stream size                              : 2.28 GiB (91%)
Color primaries                          : BT.709
Transfer characteristics                 : BT.709
Matrix coefficients                      : BT.709

Audio #1
ID                                       : 4352 (0x1100)
Menu ID                                  : 1 (0x1)
Format                                   : MPEG Audio
Format version                           : Version 1
Format profile                           : Layer 2
Codec ID                                 : 4
Duration                                 : 45mn 27s
Bit rate mode                            : Constant
Bit rate                                 : 160 Kbps
Channel(s)                               : 2 channels
Sampling rate                            : 48.0 KHz
Compression mode                         : Lossy
Stream size                              : 52.0 MiB (2%)
Language                                 : Russian

Audio #2
ID                                       : 4353 (0x1101)
Menu ID                                  : 1 (0x1)
Format                                   : MPEG Audio
Format version                           : Version 1
Format profile                           : Layer 2
Codec ID                                 : 4
Duration                                 : 45mn 27s
Bit rate mode                            : Constant
Bit rate                                 : 160 Kbps
Channel(s)                               : 2 channels
Sampling rate                            : 48.0 KHz
Compression mode                         : Lossy
Stream size                              : 52.0 MiB (2%)
Language                                 : English





Постеры

Соцсети

 

Статистика

Автор: Stepan
Добавлен: 18 сен 2016, 23:22
Размер: 30.37 ГБ
Размер: 32 610 418 900 байт
Сидеров: 3
Личеров: 1
Скачали: 0
Здоровье: 100%
Раздающих: 100%
Статус:
Скорость скачивания: 0 байт/сек
Скорость раздачи: 0 байт/сек
Последний сидер: 10 месяцев 29 дней 9 часов 23 минуты 55 секунд назад
Последний личер: 10 месяцев 29 дней 9 часов 23 минуты 55 секунд назад
Приватный: Нет (DHT включён)
Кулинария Скачать торрент
Скачать торрент
[ Размер 153.27 КБ / Просмотров 2 ]

Поделиться



Вернуться в Кулинария