Кулинарные путешествия Джейми Оливера / Jamie's Food Escapes (1-6 из 1-6) [2010, Кулинарное шоу, HDTV, RUS]

Рецепты салатов, закусок, мясных блюд, горячих напитков и сладких блюд
Торрент Сидеров Личеров Размер
torrent_4874106.torrent
8 2 16.21 ГБ
Аватара пользователя
Stepan
Администратор
Сообщения: 52267
Зарегистрирован: 05 ноя 2011, 20:36

Кулинарные путешествия Джейми Оливера / Jamie's Food Escapes (1-6 из 1-6) [2010, Кулинарное шоу, HDTV, RUS]

Сообщение Stepan » 18 сен 2016, 23:22

Кулинарные путешествия Джейми Оливера / Jamie's Food Escapes

Страна: Соединённое Королевство Великобритании и Северной Ирландии
Тематика: Кулинарное шоу
Тип раздаваемого материала: Видеоурок
Продолжительность: 00:47:42
Год выпуска: 2010

Язык: Русский
Перевод: Профессиональный (одноголосый)

Язык субтитров: нет
Описание: После американской поездки и великого итальянского побега, Джейми Оливер вернулся на дорогу кулинарных экспедиций по всей Европе и Северной Африке. В этой новой серии, Джеми посещает шесть мест - Марракеш, Афины, Андалусия, Стокгольм, Венеция и Миди Пиренеи во Франции. В каждом эпизоде, Джейми также погружается в уникальную культуру каждого пункта пребывания, исследует рынки, и узнает о традиционной практике приготовления местных жителей.
Эпизод 1 - Джейми в Марракеше / Marrakesh.
Эпизод 2 - Джейми в Андалусии / Andalucia.
Эпизод 3 - Джейми в Стокгольме / Stockholm.
Эпизод 4 - Джейми в Венеции / Venice.
Эпизод 5 - Джейми в Пиренеях / The French Pyrenees
Эпизод 6 - Джейми в Афинах / Athens.

Доп. информация:


Чистая запись с канала FoxLife HD без перекодирования.
Код:

Код: Выделить всё

General
ID                                       : 1 (0x1)
Complete name                            : E:\Jamie\Jamie's Food Escapes HD\Jamie's.Food.Escapes.HDTV.Marrakesh.ts
Format                                   : MPEG-TS
File size                                : 2.68 GiB
Duration                                 : 48mn 9s
Overall bit rate mode                    : Variable
Overall bit rate                         : 7 968 Kbps
Maximum Overall bit rate                 : 35.5 Mbps

Video
ID                                       : 4113 (0x1011)
Menu ID                                  : 1 (0x1)
Format                                   : AVC
Format/Info                              : Advanced Video Codec
Format profile                           : Main@L4.0
Format settings, CABAC                   : Yes
Format settings, ReFrames                : 4 frames
Codec ID                                 : 27
Duration                                 : 48mn 9s
Bit rate                                 : 7 251 Kbps
Width                                    : 1 920 pixels
Height                                   : 1 080 pixels
Display aspect ratio                     : 16:9
Frame rate                               : 25.000 fps
Standard                                 : Component
Color space                              : YUV
Chroma subsampling                       : 4:2:0
Bit depth                                : 8 bits
Scan type                                : MBAFF
Bits/(Pixel*Frame)                       : 0.140
Stream size                              : 2.44 GiB (91%)
Color primaries                          : BT.709
Transfer characteristics                 : BT.709
Matrix coefficients                      : BT.709

Audio #1
ID                                       : 4352 (0x1100)
Menu ID                                  : 1 (0x1)
Format                                   : MPEG Audio
Format version                           : Version 1
Format profile                           : Layer 2
Codec ID                                 : 4
Duration                                 : 48mn 9s
Bit rate mode                            : Constant
Bit rate                                 : 160 Kbps
Channel(s)                               : 2 channels
Sampling rate                            : 48.0 KHz
Compression mode                         : Lossy
Stream size                              : 55.1 MiB (2%)
Language                                 : Russian

Audio #2
ID                                       : 4353 (0x1101)
Menu ID                                  : 1 (0x1)
Format                                   : MPEG Audio
Format version                           : Version 1
Format profile                           : Layer 2
Codec ID                                 : 4
Duration                                 : 48mn 9s
Bit rate mode                            : Constant
Bit rate                                 : 160 Kbps
Channel(s)                               : 2 channels
Sampling rate                            : 48.0 KHz
Compression mode                         : Lossy
Stream size                              : 55.1 MiB (2%)
Language                                 : English
Качество: HDTV
Формат: TS
Видео кодек: H.264
Аудио кодек: MP2
Видео:MPEG4 Video (H264) 1920x1080 25fps 7 246 Kbps [V: h264 main L4.0, yuv420p, 1920x1080]
Аудио: MPEG Audio Version 1 Layer 2 48000Hz stereo 160 kbps




У вас нет необходимых прав для просмотра вложений в этом сообщении.