Сообщение

Кухня Джейми / Jamie’s Kitchen [2002, Кулинарное шоу, DVB, RUS]

Сообщение Stepan » 18 сен 2016, 23:23

Кухня Джейми / Jamie’s Kitchen

Страна: Соединённое Королевство Великобритании и Северной Ирландии
Тематика: Кулинарное шоу
Тип раздаваемого материала: Видеоурок
Продолжительность: 00:48:23
Год выпуска: 2002

Язык: Русский
Перевод: Профессиональный (двухголосый)

Язык субтитров: нет
Описание: Джейми Оливер набирает 15 молодых безработных лондонцев, чтобы обучить их для работы в своем новом ресторане. Это будет не просто! Но кто как ни Джейми Оливер справится с такой задачей! Сам он когда-то покинул колледж, так и не получив сертификата, но страсть к еде все равно сделала из Джейми Оливера потрясающего повара.

Качество: DVB
Формат: TS
Видео кодек: MPEG2
Аудио кодек: MP2
Видео: MPEG 2, 720x576 (4:3), 25.000 fps, 15.0 Mbps (0.305 bit/pixel)
Аудио: MP2, 48.0 KHz, 2 ch, 192 Kbps, CBR
Код:
Код: Выделить всё
General
ID                          : 16 (0x10)
Complete name               : E:\Jamie\Jamie’s Kitchen\Jamie’s.Kitchen.S01.E01.DVB.ts
Format                      : MPEG-TS
File size                   : 1.19 GiB
Duration                    : 48mn 23s
Overall bit rate mode       : Variable
Overall bit rate            : 3 528 Kbps

Video
ID                          : 69 (0x45)
Menu ID                     : 1 (0x1)
Format                      : MPEG Video
Format version              : Version 2
Format profile              : Main@Main
Format settings, BVOP       : Yes
Format settings, Matrix     : Custom
Format settings, GOP        : Variable
Format settings, picture st : Frame
Codec ID                    : 2
Duration                    : 48mn 23s
Bit rate mode               : Variable
Bit rate                    : 3 160 Kbps
Maximum bit rate            : 15.0 Mbps
Width                       : 720 pixels
Height                      : 576 pixels
Display aspect ratio        : 4:3
Frame rate                  : 25.000 fps
Standard                    : PAL
Color space                 : YUV
Chroma subsampling          : 4:2:0
Bit depth                   : 8 bits
Scan type                   : Interlaced
Scan order                  : Top Field First
Compression mode            : Lossy
Bits/(Pixel*Frame)          : 0.305
Time code of first frame    : 00:00:00:00
Time code source            : Group of pictures header
GOP, Open/Closed            : Open
Stream size                 : 1.07 GiB (90%)
Writing library             : (dvd5: Jun 16 2014)

Audio
ID                          : 68 (0x44)
Menu ID                     : 1 (0x1)
Format                      : MPEG Audio
Format version              : Version 1
Format profile              : Layer 2
Codec ID                    : 3
Duration                    : 48mn 23s
Bit rate mode               : Constant
Bit rate                    : 192 Kbps
Channel(s)                  : 2 channels
Sampling rate               : 48.0 KHz
Compression mode            : Lossy
Stream size                 : 66.5 MiB (5%)





Постеры

Соцсети

 

Статистика

Автор: Stepan
Добавлен: 18 сен 2016, 23:23
Размер: 8.67 ГБ
Размер: 9 312 572 668 байт
Сидеров: 1
Личеров: 0
Скачали: 0
Здоровье: 100%
Раздающих: 100%
Статус:
Скорость скачивания: 0 байт/сек
Скорость раздачи: 0 байт/сек
Последний сидер: 10 месяцев 12 дней 2 часа 19 минут 34 секунды назад
Последний личер: Нет
Приватный: Нет (DHT включён)
Кулинария Скачать торрент
Скачать торрент
[ Размер 44.25 КБ / Просмотров 1 ]

Поделиться



Вернуться в Кулинария