Сообщение

Реймонд Блан.Секреты на кухне сезон 1-2 / Raymond Blanc's Kitchen Secrets season 1-2 /1 сезон Весь цикл 8 Выпусков / 2 сезон Весь цикл 8 Выпусков [2010-2011, ТВ-шоу, кулинария, SATRip, RUS] (Видеоурок)

Сообщение Stepan » 18 сен 2016, 23:24

Реймонд Блан.Секреты на кухне сезон 1-2 / Raymond Blanc's Kitchen Secrets season 1-2 / 1 сезон Весь цикл 8 Выпусков / 2 сезон Весь цикл 8 Выпусков

Страна: Великобритания
Тематика: ТВ-шоу, кулинария
Тип раздаваемого материала: Видеоурок
Продолжительность: ~ 00:29:30
Год выпуска: 2010-2011

Язык: Русский
Перевод: Профессиональный (одноголосый)

Описание: Француз по происхождению, а ныне — известный британский шеф-повар — Реймонд Блан... Маэстро не только удивит нас тонкостью и красотой своих блюд, но и поделится профессиональными секретами, а их у Реймонда немало...
Представьте, сколько их могло накопиться за 35 (!) лет работы на кухне. Советы мастера помогут избежать ошибок, ведь их когда-то уже совершил сам Реймонд и теперь точно знает о чем говорит! Так что, будьте во всеоружии, чтобы успеть все записать и научиться готовить потрясающие блюда из самых простых ингредиентов. Например, из рыбы, яблок, помидоров или даже просто хлеба...

Релиз:
Tarjaa

Содержание:
Сезон 1
Выпуск 1: Шоколад
Выпуск 2: Рыба
Выпуск 3: Яблоки
Выпуск 4: Зимние овощи
Выпуск 5: Грибы и птица (дичь)
Выпуск 6: Хлеб.
Выпуск 7: Яйца и сыр.
Выпуск 8: Помидоры.

Сезон 2
01.Моллюски / Shellfish
02.Торты и пирожные / Cakes and Pastries
03.Баранина / Lamb
04.Пудинг / Pudding
05.Колбаса / Charcuterie
06.Специи и чили /Spices and Chillies
07.Летние фрукты / Summer Fruits
08. Летняя зелень / Summer Greens
MediaInfo:
General
Complete name :Kitchen Secrets recipes.1-2.Season_Tarjaa\Kitchen Secrets recipes.2sezon\Kitchen Secrets recipes.2sezon.v.01.2011.XviD.SATRip_Tarjaa.avi
Format : AVI
Format/Info : Audio Video Interleave
File size : 372 MiB
Duration : 29mn 6s
Overall bit rate : 1 788 Kbps
Writing application : VirtualDubMod 1.5.10.3 | www.virtualdub-fr.org || (build 2550/release)
Writing library : VirtualDubMod build 2550/release

Video
ID : 0
Format : MPEG-4 Visual
Format profile : Advanced Simple@L5
Format settings, BVOP : 1
Format settings, QPel : No
Format settings, GMC : No warppoints
Format settings, Matrix : Default (H.263)
Codec ID : XVID
Codec ID/Hint : XviD
Duration : 29mn 6s
Bit rate : 1 650 Kbps
Width : 704 pixels
Height : 400 pixels
Display aspect ratio : 16:9
Frame rate : 25.000 fps
Color space : YUV
Chroma subsampling : 4:2:0
Bit depth : 8 bits
Scan type : Progressive
Compression mode : Lossy
Bits/(Pixel*Frame) : 0.234
Stream size : 344 MiB (92%)
Writing library : XviD 1.2.1 (UTC 2008-12-04)

Audio
ID : 1
Format : MPEG Audio
Format version : Version 1
Format profile : Layer 3
Codec ID : 55
Codec ID/Hint : MP3
Duration : 29mn 6s
Bit rate mode : Constant
Bit rate : 128 Kbps
Channel count : 2 channels
Sampling rate : 48.0 KHz
Compression mode : Lossy
Stream size : 26.7 MiB (7%)
Alignment : Aligned on interleaves
Interleave, duration : 40 ms (1.00 video frame)
Interleave, preload duration : 504 ms
Writing library : LAME3.98r
Encoding settings : -m s -V 4 -q 2 -lowpass 17 -b 128
Качество: SATRip
Формат: AVI
Видео кодек: XviD
Аудио кодек: MP3
Видео: Xvid 720x544 25fps Bit rate: ~ 1 600 Kbps
Xvid 704x400 25.00fps Bit rate:~ 1650 Kbps
Аудио: MP3 48000Hz stereo 2 ch ~ 128kbps [Stream 01]
MPEG Audio Layer 3 48000Hz stereo 2 ch, ~ 128 Кбит/с [Stream 01]

Добавлен 2 сезон (8 серий)
перезалейте торрент

Постеры

Соцсети

 

Статистика

Автор: Stepan
Добавлен: 18 сен 2016, 23:24
Размер: 5.72 ГБ
Размер: 6 146 156 544 байт
Сидеров: 16
Личеров: 6
Скачали: 0
Здоровье: 100%
Раздающих: 100%
Статус:
Скорость скачивания: 0 байт/сек
Скорость раздачи: 0 байт/сек
Последний сидер: 8 месяцев 10 дней 8 часов 56 минут 11 секунд назад
Последний личер: 8 месяцев 10 дней 8 часов 56 минут 11 секунд назад
Приватный: Нет (DHT включён)
Кулинария Скачать торрент
Скачать торрент
[ Размер 31.08 КБ / Просмотров 1 ]

Поделиться



  • Похожие торренты
    Ответы
    Просмотры
    Последнее сообщение

Вернуться в Кулинария