Сообщение

Праздничный стол Джейми / Jamie's Festive Feast [2013, Кулинарное шоу, HDTV, RUS/ENG]

Сообщение Stepan » 18 сен 2016, 23:24

Праздничный стол Джейми / Jamie's Festive Feast

Страна: Соединённое Королевство Великобритании и Северной Ирландии
Тематика: Кулинарное шоу
Тип раздаваемого материала: Видеоурок
Продолжительность: 00:47:53
Год выпуска: 2013

Язык: Русский + Английский
Перевод: Профессиональный (одноголосый)

Язык субтитров: нет
Описание: Джимми оливер подает свой идеальный хавчик и его лучшие идеи для праздничной еды.

Он празднует ленивые зимние денечки уходящего года. Рождество уже позади и сейчас самое время расслабиться, провести время с семьей и друзьями и настряпать невероятных блюд.

Качество: HDTV
Формат: TS
Видео кодек: MPEG2
Аудио кодек: MP2
Видео: MPEG4 Video (H264) 1920x1080 25fps [V: h264 main L4.0, yuv420p, 1920x1080]
Аудио: MP2 48000Hz stereo 160kbps [A: Russian [rus] (mp2, 48000 Hz, stereo, 160 kb/s)
Аудио 2: MP2 48000Hz stereo 160kbps [A: English [eng] (mp2, 48000 Hz, stereo, 160 kb/s)]
Код:
Код: Выделить всё
General
ID                          : 1 (0x1)
Complete name               : E:\Jamie\Jamie's.Festive.Feast.ts
Format                      : MPEG-TS
File size                   : 2.64 GiB
Duration                    : 47mn 52s
Overall bit rate mode       : Variable
Overall bit rate            : 7 905 Kbps
Maximum Overall bit rate    : 35.5 Mbps

Video
ID                          : 4113 (0x1011)
Menu ID                     : 1 (0x1)
Format                      : AVC
Format/Info                 : Advanced Video Codec
Format profile              : Main@L4.0
Format settings, CABAC      : Yes
Format settings, ReFrames   : 4 frames
Codec ID                    : 27
Duration                    : 47mn 52s
Bit rate                    : 7 191 Kbps
Width                       : 1 920 pixels
Height                      : 1 080 pixels
Display aspect ratio        : 16:9
Frame rate                  : 25.000 fps
Standard                    : Component
Color space                 : YUV
Chroma subsampling          : 4:2:0
Bit depth                   : 8 bits
Scan type                   : MBAFF
Scan order                  : Top Field First
Bits/(Pixel*Frame)          : 0.139
Stream size                 : 2.41 GiB (91%)
Color primaries             : BT.709
Transfer characteristics    : BT.709
Matrix coefficients         : BT.709
Color range                 : Limited

Audio #1
ID                          : 4352 (0x1100)
Menu ID                     : 1 (0x1)
Format                      : MPEG Audio
Format version              : Version 1
Format profile              : Layer 2
Codec ID                    : 4
Duration                    : 47mn 52s
Bit rate mode               : Constant
Bit rate                    : 160 Kbps
Channel(s)                  : 2 channels
Sampling rate               : 48.0 KHz
Compression mode            : Lossy
Stream size                 : 54.8 MiB (2%)
Language                    : Russian

Audio #2
ID                          : 4353 (0x1101)
Menu ID                     : 1 (0x1)
Format                      : MPEG Audio
Format version              : Version 1
Format profile              : Layer 2
Mode                        : Joint stereo
Mode extension              : MS Stereo
Codec ID                    : 4
Duration                    : 47mn 52s
Bit rate mode               : Constant
Bit rate                    : 160 Kbps
Channel(s)                  : 2 channels
Sampling rate               : 48.0 KHz
Compression mode            : Lossy
Stream size                 : 54.8 MiB (2%)
Language                    : English





Постеры

Соцсети

 

Статистика

Автор: Stepan
Добавлен: 18 сен 2016, 23:24
Размер: 2.64 ГБ
Размер: 2 838 896 632 байт
Сидеров: 3
Личеров: 1
Скачали: 0
Здоровье: 100%
Раздающих: 100%
Статус:
Скорость скачивания: 0 байт/сек
Скорость раздачи: 0 байт/сек
Последний сидер: 7 месяцев 12 дней 10 часов 35 минут 5 секунд назад
Последний личер: 7 месяцев 12 дней 10 часов 35 минут 5 секунд назад
Приватный: Нет (DHT включён)
Кулинария Скачать торрент
Скачать торрент
[ Размер 13.66 КБ / Просмотров 2 ]

Поделиться



  • Похожие торренты
    Ответы
    Просмотры
    Последнее сообщение

Вернуться в Кулинария