Кулинарный поединок с Джейми Оливером (сезон 2-3) / Jamie and Jimmys Friday Night feast (c1: 1-6 из 1-6; c2: 1-6 из 1-6) [2014, Кулинарное шоу, DVB, RUS/ENG]

Рецепты салатов, закусок, мясных блюд, горячих напитков и сладких блюд
Торрент Сидеров Личеров Размер
torrent_4885866.torrent
12 4 14.13 ГБ
Аватара пользователя
Stepan
Администратор
Сообщения: 52386
Зарегистрирован: 05 ноя 2011, 20:36

Кулинарный поединок с Джейми Оливером (сезон 2-3) / Jamie and Jimmys Friday Night feast (c1: 1-6 из 1-6; c2: 1-6 из 1-6) [2014, Кулинарное шоу, DVB, RUS/ENG]

Сообщение Stepan » 18 сен 2016, 23:25

Кулинарный поединок с Джейми Оливером (сезон 2-3) / Jamie and Jimmys Friday Night feast (season 1-2)

Страна: Соединённое королевство Великобритании и Северной Ирландии
Тематика: Кулинарное шоу
Тип раздаваемого материала: Видеоурок
Продолжительность: 00:46:19
Год выпуска: 2014

Язык: Русский + Английский
Перевод: Профессиональный (одноголосый)

Язык субтитров: нет
Описание: Джейми Оливер и Джимми Доэрти дружат со школьной скамьи. Оба всегда любили вкусно поесть. Теперь, когда они оба повзрослели и вернулись в родной Эссекс, они открыли небольшое кафе.
Вкусная еда от Джейми, немного науки от Джимми и встречи с очень особенными друзьями, среди которых Гвинет Пэлтроу, Алан Карр, Гари Барлоу и Джонатан Росс.

Доп. информация:
Чистая запись с канала FoxLife без перекодирования.
Код:

Код: Выделить всё

General
ID                                       : 16 (0x10)
Complete name                            : E:\Jamie\Jamie and Jimmys Friday Night feast\Jamie.And.Jimmys.Friday.Night.Feast.S01E02.DVB.ts
Format                                   : MPEG-TS
File size                                : 1.26 GiB
Duration                                 : 46mn 18s
Overall bit rate mode                    : Variable
Overall bit rate                         : 3 896 Kbps

Video
ID                                       : 41 (0x29)
Menu ID                                  : 3 (0x3)
Format                                   : MPEG Video
Format version                           : Version 2
Format profile                           : Main@Main
Format settings, BVOP                    : Yes
Format settings, Matrix                  : Custom
Format settings, GOP                     : Variable
Format settings, picture structure       : Frame
Codec ID                                 : 2
Duration                                 : 46mn 18s
Bit rate mode                            : Variable
Bit rate                                 : 3 315 Kbps
Maximum bit rate                         : 3 400 Kbps
Width                                    : 720 pixels
Height                                   : 576 pixels
Display aspect ratio                     : 16:9
Frame rate                               : 25.000 fps
Standard                                 : PAL
Color space                              : YUV
Chroma subsampling                       : 4:2:0
Bit depth                                : 8 bits
Scan type                                : Interlaced
Scan order                               : Top Field First
Compression mode                         : Lossy
Bits/(Pixel*Frame)                       : 0.320
Time code of first frame                 : 00:00:00:00
Time code source                         : Group of pictures header
Stream size                              : 1.07 GiB (85%)
Writing library                          : (dvd5: Jun 16 2014)

Audio #1
ID                                       : 44 (0x2C)
Menu ID                                  : 3 (0x3)
Format                                   : MPEG Audio
Format version                           : Version 1
Format profile                           : Layer 2
Codec ID                                 : 3
Duration                                 : 46mn 18s
Bit rate mode                            : Constant
Bit rate                                 : 192 Kbps
Channel(s)                               : 2 channels
Sampling rate                            : 48.0 KHz
Compression mode                         : Lossy
Stream size                              : 63.6 MiB (5%)

Audio #2
ID                                       : 45 (0x2D)
Menu ID                                  : 3 (0x3)
Format                                   : MPEG Audio
Format version                           : Version 1
Format profile                           : Layer 2
Codec ID                                 : 3
Duration                                 : 46mn 18s
Bit rate mode                            : Constant
Bit rate                                 : 192 Kbps
Channel(s)                               : 2 channels
Sampling rate                            : 48.0 KHz
Compression mode                         : Lossy
Stream size                              : 63.6 MiB (5%)
Качество: DVB
Формат: TS
Видео кодек: MPEG2
Аудио кодек: MP2
Видео: MPEG2 Video 720x576 (16:9) 25fps [V: mpeg2 main, yuv420p, 720x576]
Аудио: MPEG Audio 48000Hz stereo 96kbps [A: mp2, 48000 Hz, stereo, 96 kb/s]
Аудио 2: MPEG Audio 48000Hz stereo 96kbps [A: mp2, 48000 Hz, stereo, 96 kb/s]




У вас нет необходимых прав для просмотра вложений в этом сообщении.