Сообщение

Семейное рождество Джейми / Jamie's Family Christmas [2009, Кулинарное шоу, HDTV, RUS/ENG]

Сообщение Stepan » 18 сен 2016, 23:26

Семейное рождество Джейми / Jamie's Family Christmas

Страна: Соединённое Королевство Великобритании и Северной Ирландии
Тематика: Кулинарное шоу
Тип раздаваемого материала: Видеоурок
Продолжительность: 00:23:56
Год выпуска: 2009

Язык: Русский + Английский
Перевод: Профессиональный (одноголосый)

Язык субтитров: нет
Описание: Кулинарное Рождественское шоу Джейми Оливера.
серии:
1. "Рождественская индейка" - ( запеченная индейка, начинка для индейки, соус, индейка чили)
2. "Завтрак, обед и поздний завтрак" - (блинчики, салат с карпаччо из говядины, окорок и яйца, жаркое из риса с рыбой и яйцами)
3. "Жареный картофель и овощи" - (жареный картофель, жареные овощи, брускетта, жаркое bubble-and-squeak)
4. "Праздничные десерты" - (праздничный штрудель, шоколадный мусс, мороженое, зимний пудинг, желе)
5. "Праздник" - (паштет из куриной печени, гранатовые шоты и сидр, зимний суп)

Качество: HDTV
Формат: TS
Видео кодек: H.264
Аудио кодек: MP2
Видео: MPEG4 Video (H264) 1920x1080 25fps [V: h264 main L4.0, yuv420p, 1920x1080]
Аудио: MP2 48000Hz stereo 160kbps [A: Russian [rus] (mp2, 48000 Hz, stereo, 160 kb/s)]
Аудио 2: MP2 48000Hz stereo 160kbps [A: English [eng] (mp2, 48000 Hz, stereo, 160 kb/s)]
Код:
Код: Выделить всё
General
ID                          : 1 (0x1)
Complete name               : E:\Jamie\Jamie's Family Christmas HD\Jamie.Family.Christmas.S01.E01.HDTV.ts
Format                      : MPEG-TS
File size                   : 1.31 GiB
Duration                    : 23mn 34s
Overall bit rate mode       : Variable
Overall bit rate            : 7 953 Kbps
Maximum Overall bit rate    : 35.5 Mbps

Video
ID                          : 4113 (0x1011)
Menu ID                     : 1 (0x1)
Format                      : AVC
Format/Info                 : Advanced Video Codec
Format profile              : Main@L4.0
Format settings, CABAC      : Yes
Format settings, ReFrames   : 4 frames
Format settings, GOP        : M=3, N=12
Codec ID                    : 27
Duration                    : 23mn 32s
Bit rate                    : 7 236 Kbps
Width                       : 1 920 pixels
Height                      : 1 080 pixels
Display aspect ratio        : 16:9
Frame rate                  : 25.000 fps
Standard                    : Component
Color space                 : YUV
Chroma subsampling          : 4:2:0
Bit depth                   : 8 bits
Scan type                   : MBAFF
Scan order                  : Top Field First
Bits/(Pixel*Frame)          : 0.140
Stream size                 : 1.19 GiB (91%)
Color primaries             : BT.709
Transfer characteristics    : BT.709
Matrix coefficients         : BT.709
Color range                 : Limited

Audio #1
ID                          : 4352 (0x1100)
Menu ID                     : 1 (0x1)
Format                      : MPEG Audio
Format version              : Version 1
Format profile              : Layer 2
Mode                        : Joint stereo
Mode extension              : Intensity Stereo + MS Stereo
Codec ID                    : 4
Duration                    : 23mn 34s
Bit rate mode               : Constant
Bit rate                    : 160 Kbps
Channel(s)                  : 2 channels
Sampling rate               : 48.0 KHz
Compression mode            : Lossy
Stream size                 : 27.0 MiB (2%)
Language                    : Russian

Audio #2
ID                          : 4353 (0x1101)
Menu ID                     : 1 (0x1)
Format                      : MPEG Audio
Format version              : Version 1
Format profile              : Layer 2
Mode                        : Joint stereo
Mode extension              : Intensity Stereo
Codec ID                    : 4
Duration                    : 23mn 34s
Bit rate mode               : Constant
Bit rate                    : 160 Kbps
Channel(s)                  : 2 channels
Sampling rate               : 48.0 KHz
Compression mode            : Lossy
Stream size                 : 27.0 MiB (2%)
Language                    : English





Постеры

Соцсети

 

Статистика

Автор: Stepan
Добавлен: 18 сен 2016, 23:26
Размер: 6.59 ГБ
Размер: 7 081 278 500 байт
Сидеров: 3
Личеров: 1
Скачали: 0
Здоровье: 100%
Раздающих: 100%
Статус:
Скорость скачивания: 0 байт/сек
Скорость раздачи: 0 байт/сек
Последний сидер: 10 месяцев 12 дней 17 часов 28 минут 15 секунд назад
Последний личер: 10 месяцев 12 дней 17 часов 28 минут 15 секунд назад
Приватный: Нет (DHT включён)
Кулинария Скачать торрент
Скачать торрент
[ Размер 33.77 КБ / Просмотров 0 ]

Поделиться



Вернуться в Кулинария