Кухня Джейми Оливера. Австралия / Jamie's Kitchen. Australia [2006, Кулинарное шоу, DVB, RUS/ENG]

Рецепты салатов, закусок, мясных блюд, горячих напитков и сладких блюд
Торрент Сидеров Личеров Размер
torrent_5234195.torrent
3 1 9.89 ГБ
Аватара пользователя
Stepan
Администратор
Сообщения: 52386
Зарегистрирован: 05 ноя 2011, 20:36

Кухня Джейми Оливера. Австралия / Jamie's Kitchen. Australia [2006, Кулинарное шоу, DVB, RUS/ENG]

Сообщение Stepan » 18 сен 2016, 23:26

Кухня Джейми Оливера. Австралия / Jamie's Kitchen. Australia

Страна: Австралия
Тематика: Кулинарное шоу
Тип раздаваемого материала: Видеоурок
Продолжительность: 00:44:24
Год выпуска: 2006

Язык: Русский + Английский
Перевод: Профессиональный (одноголосый)

Язык субтитров: нет
Описание: Джейми Оливер и его хороший друг Тоби Патток открывают новый ресторан «Пятнадцать» за пределами Европы. На этот раз выбран город Мельбурн в Австралии. Два известных шеф-повара решили дать возможность реализовать свои карьерные устремления нескольким местным подросткам.
У Оливера уже есть опыт работы с подобным проектом, он реализовывался в Англии и был показан в ходе шоу «Кухня Джейми», который вышел на экраны в 2002 году. И вот спустя четыре года, судьями благотворительного фонда «Fifteen» были отобраны 25 человек в возрасте от 16 до 24 лет. Им предстоит пройти обучение кулинарному искусству под предводительством таких строгих наставников, как Джейми Оливер и Тоби Патток.
Посмотрим, получиться ли у них вновь из неблагополучных подростков, многие из которых уже бросили школу, не имеют жилья, страдают токсикоманией и вообще имеют негативный опыт в жизни, сделать настоящих шеф-поваров.
Хватит ли Джейми нервов совладать с этими ребятами - это мы увидим в ходе десяти серийного шоу «Кухня Джейми. Австралия» (Jamie's Kitchen. Australia).

Доп. информация:


Чистая запись с канала FoxLife без перекодирования.

Качество: DVB
Формат: TS
Видео кодек: MPEG2
Аудио кодек: MP2
Видео: MPEG2 Video 720x576 (16:9) 25fps [V: mpeg2 main, yuv420p, 720x576]
Аудио: MPEG Audio 48000Hz stereo 192kbps [A: mp2, 48000 Hz, stereo, 192 kb/s]
Аудио 2: MPEG Audio 48000Hz stereo 192kbps [A: mp2, 48000 Hz, stereo, 192 kb/s]
Код:

Код: Выделить всё

General
ID                             : 16 (0x10)
Complete name                  : E:\Jamie\Jamie's Kitchen. Australia\Jamie’s.Kitchen.Australia.S01.E01.DVB.ts
Format                         : MPEG-TS
File size                      : 1.08 GiB
Duration                       : 44mn 24s
Overall bit rate mode          : Variable
Overall bit rate               : 3 489 Kbps

Video
ID                             : 41 (0x29)
Menu ID                        : 3 (0x3)
Format                         : MPEG Video
Format version                 : Version 2
Format profile                 : Main@Main
Format settings, BVOP          : Yes
Format settings, Matrix        : Custom
Format settings, GOP           : Variable
Format settings, picture struc : Frame
Codec ID                       : 2
Duration                       : 44mn 24s
Bit rate mode                  : Variable
Bit rate                       : 2 929 Kbps
Maximum bit rate               : 3 000 Kbps
Width                          : 720 pixels
Height                         : 576 pixels
Display aspect ratio           : 16:9
Frame rate                     : 25.000 fps
Standard                       : PAL
Color space                    : YUV
Chroma subsampling             : 4:2:0
Bit depth                      : 8 bits
Scan type                      : Interlaced
Scan order                     : Top Field First
Compression mode               : Lossy
Bits/(Pixel*Frame)             : 0.282
Time code of first frame       : 00:00:00:00
Time code source               : Group of pictures header
GOP, Open/Closed               : Open
Stream size                    : 930 MiB (84%)
Writing library                : (dvd5: Jun 16 2014)

Audio #1
ID                             : 44 (0x2C)
Menu ID                        : 3 (0x3)
Format                         : MPEG Audio
Format version                 : Version 1
Format profile                 : Layer 2
Mode                           : Joint stereo
Mode extension                 : Intensity Stereo + MS Stereo
Codec ID                       : 3
Duration                       : 44mn 24s
Bit rate mode                  : Constant
Bit rate                       : 192 Kbps
Channel(s)                     : 2 channels
Sampling rate                  : 48.0 KHz
Compression mode               : Lossy
Stream size                    : 61.0 MiB (6%)

Audio #2
ID                             : 45 (0x2D)
Menu ID                        : 3 (0x3)
Format                         : MPEG Audio
Format version                 : Version 1
Format profile                 : Layer 2
Mode                           : Joint stereo
Mode extension                 : Intensity Stereo + MS Stereo
Codec ID                       : 3
Duration                       : 44mn 24s
Bit rate mode                  : Constant
Bit rate                       : 192 Kbps
Channel(s)                     : 2 channels
Sampling rate                  : 48.0 KHz
Compression mode               : Lossy
Stream size                    : 61.0 MiB (6%)




У вас нет необходимых прав для просмотра вложений в этом сообщении.