Кухня Джейми Оливера. Австралия / Jamie's Kitchen. Australia [2006, Кулинарное шоу, HDTV, RUS/ENG]

Рецепты салатов, закусок, мясных блюд, горячих напитков и сладких блюд
Торрент Сидеров Личеров Размер
torrent_5234197.torrent
3 1 23.13 ГБ
Аватара пользователя
Stepan
Администратор
Сообщения: 52388
Зарегистрирован: 05 ноя 2011, 20:36

Кухня Джейми Оливера. Австралия / Jamie's Kitchen. Australia [2006, Кулинарное шоу, HDTV, RUS/ENG]

Сообщение Stepan » 18 сен 2016, 23:27

Кухня Джейми Оливера. Австралия / Jamie's Kitchen. Australia

Страна: Австралия
Тематика: Кулинарное шоу
Тип раздаваемого материала: Видеоурок
Продолжительность: 00:44:24
Год выпуска: 2006

Язык: Русский + Английский
Перевод: Профессиональный (одноголосый)

Язык субтитров: нет
Описание: Джейми Оливер и его хороший друг Тоби Патток открывают новый ресторан «Пятнадцать» за пределами Европы. На этот раз выбран город Мельбурн в Австралии. Два известных шеф-повара решили дать возможность реализовать свои карьерные устремления нескольким местным подросткам.
У Оливера уже есть опыт работы с подобным проектом, он реализовывался в Англии и был показан в ходе шоу «Кухня Джейми», который вышел на экраны в 2002 году. И вот спустя четыре года, судьями благотворительного фонда «Fifteen» были отобраны 25 человек в возрасте от 16 до 24 лет. Им предстоит пройти обучение кулинарному искусству под предводительством таких строгих наставников, как Джейми Оливер и Тоби Патток.
Посмотрим, получиться ли у них вновь из неблагополучных подростков, многие из которых уже бросили школу, не имеют жилья, страдают токсикоманией и вообще имеют негативный опыт в жизни, сделать настоящих шеф-поваров.
Хватит ли Джейми нервов совладать с этими ребятами - это мы увидим в ходе десяти серийного шоу «Кухня Джейми. Австралия» (Jamie's Kitchen. Australia).

Доп. информация:


Чистая запись с канала FoxLife без перекодирования.

Качество: HDTV
Формат: TS
Видео кодек: H.264
Аудио кодек: MP2
Видео: MPEG4 Video (H264) 1920x1080 25fps [V: h264 main L4.0, yuv420p, 1920x1080]
Аудио: MPEG Audio 48000Hz stereo 160kbps [A: Russian [rus] (mp2, 48000 Hz, stereo, 160 kb/s)
Аудио 2: MPEG Audio 48000Hz stereo 160kbps [A: Russian [eng] (mp2, 48000 Hz, stereo, 160 kb/s)
Код:

Код: Выделить всё

General
ID                             : 1 (0x1)
Complete name                  : E:\Jamie\Jamie's Kitchen. Australia HD\Jamie’s.Kitchen.Australia.S01.E01.HDTV.ts
Format                         : MPEG-TS
File size                      : 2.47 GiB
Duration                       : 44mn 24s
Overall bit rate mode          : Variable
Overall bit rate               : 7 968 Kbps

Video
ID                             : 141 (0x8D)
Menu ID                        : 13002 (0x32CA)
Format                         : AVC
Format/Info                    : Advanced Video Codec
Format profile                 : Main@L4
Format settings, CABAC         : Yes
Format settings, ReFrames      : 4 frames
Format settings, GOP           : M=3, N=12
Codec ID                       : 27
Duration                       : 44mn 24s
Bit rate                       : 7 251 Kbps
Width                          : 1 920 pixels
Height                         : 1 080 pixels
Display aspect ratio           : 16:9
Frame rate                     : 25.000 fps
Standard                       : Component
Color space                    : YUV
Chroma subsampling             : 4:2:0
Bit depth                      : 8 bits
Scan type                      : MBAFF
Scan type, store method        : Interleaved fields
Scan order                     : Top Field First
Bits/(Pixel*Frame)             : 0.140
Stream size                    : 2.25 GiB (91%)
Color range                    : Limited
Color primaries                : BT.709
Transfer characteristics       : BT.709
Matrix coefficients            : BT.709

Audio #1
ID                             : 144 (0x90)
Menu ID                        : 13002 (0x32CA)
Format                         : MPEG Audio
Format version                 : Version 1
Format profile                 : Layer 2
Mode                           : Joint stereo
Codec ID                       : 3
Duration                       : 44mn 24s
Bit rate mode                  : Constant
Bit rate                       : 160 Kbps
Channel(s)                     : 2 channels
Sampling rate                  : 48.0 KHz
Compression mode               : Lossy
Delay relative to video        : -40ms
Stream size                    : 50.8 MiB (2%)
Language                       : Russian

Audio #2
ID                             : 145 (0x91)
Menu ID                        : 13002 (0x32CA)
Format                         : MPEG Audio
Format version                 : Version 1
Format profile                 : Layer 2
Mode                           : Joint stereo
Codec ID                       : 3
Duration                       : 44mn 24s
Bit rate mode                  : Constant
Bit rate                       : 160 Kbps
Channel(s)                     : 2 channels
Sampling rate                  : 48.0 KHz
Compression mode               : Lossy
Delay relative to video        : -40ms
Stream size                    : 50.8 MiB (2%)
Language                       : English




У вас нет необходимых прав для просмотра вложений в этом сообщении.