Обед безбрачия [2012, HDTV, ЕДА ТВ HD, AVC, 1080i] (Видеоурок)

Рецепты салатов, закусок, мясных блюд, горячих напитков и сладких блюд
Торрент Сидеров Личеров Размер
torrent_4137592.torrent
2 1 82.55 ГБ
Аватара пользователя
Stepan
Администратор
Сообщения: 52386
Зарегистрирован: 05 ноя 2011, 20:36

Обед безбрачия [2012, HDTV, ЕДА ТВ HD, AVC, 1080i] (Видеоурок)

Сообщение Stepan » 18 сен 2016, 23:27

Обед безбрачия (часть 1)

Страна: Россия
Тип раздаваемого материала: Видеоурок
Продолжительность: 00:29:00
Год выпуска: 2012
Язык: Русский
Перевод: Не требуется
Описание: Илья Лазерсон расскажет о тонкостях холостяцкой кухни.

Автор рипа: SashaR.
Канал: Еда ТВ HD
Дополнительная информация по релизу: Собственный захват с канала Еда ТВ HD

Качество: HDTV
Формат: TS
Видео кодек: AVC
Аудио кодек: MP2
Видео: 1920x1080, 16:9, 11.7 mbps, 25 fps
Аудио: MP2, 192 kbps, 48.0 kHz, 2 channels

Обед безбрачия (HD) ч.2
Раздача в обычном качестве:
Фрикадельки
Пюре с котлетами
Рыба под овощным маринадом
Солянка
Чебуреки
Чахохбили
Говядина Веллингтон
Американский суп чеддер
Фондю из красной рыбы
Суп из чечевицы
Кисло-сладкая свинина
Картофельный суп-крем со сливками
Шницель
Цыплёнок табака
Бефстроганов
Макароны по флотски
Венгерский гуляш
Лапша по китайски
Минутный стэйк
Жареные куриные крылышки
Жареная картошка
Дипы
Стейки
Фаршированная рыба со свининой
Лимонная курица
Салат из курицы с ананасом
Довга
Жареные баклажаны в соусе по китайски
Тёплый салат
Плов
Окрошка
Сёмга в трёх вариантах
Омлет и горячий шоколад
Салат из кальмаров
Чесночный суп
: F:\Обед безбрачия\Солянка.ts
General #6
ID : 6 (0x6)
Complete name : F:\Обед безбрачия\Солянка.ts
Format : MPEG-TS
File size : 2.52 GiB
Duration : 28mn 52s
Overall bit rate : 12.5 Mbps
Video #3041
ID : 3041 (0xBE1)
Menu ID : 3004 (0xBBC)
Format : AVC
Format/Info : Advanced Video Codec
Format profile : Main@L4.0
Format settings, CABAC : Yes
Format settings, ReFrames : 3 frames
Codec ID : 27
Duration : 28mn 52s
Bit rate : 11.7 Mbps
Width : 1 920 pixels
Height : 1 080 pixels
Display aspect ratio : 16:9
Frame rate : 25.000 fps
Standard : Component
Color space : YUV
Chroma subsampling : 4:2:0
Bit depth : 8 bits
Scan type : Interlaced
Scan order : Top Field First
Bits/(Pixel*Frame) : 0.225
Stream size : 2.35 GiB (93%)
Color primaries : BT.709-5, BT.1361, IEC 61966-2-4, SMPTE RP177
Transfer characteristics : BT.709-5, BT.1361
Matrix coefficients : BT.709-5, BT.1361, IEC 61966-2-4 709, SMPTE RP177
Audio #3042
ID : 3042 (0xBE2)
Menu ID : 3004 (0xBBC)
Format : MPEG Audio
Format version : Version 1
Format profile : Layer 2
Codec ID : 4
Duration : 28mn 52s
Bit rate mode : Constant
Bit rate : 192 Kbps
Channel(s) : 2 channels
Sampling rate : 48.0 KHz
Compression mode : Lossy
Delay relative to video : 88ms
Stream size : 39.6 MiB (2%)
Внимание! Раздача ведётся путём добавления новых серий телепередачи; при каждом добавлении создаётся новый торрент. Чтобы начать докачку новой серии, пользователям необходимо сделать следующее:
(1) остановить скачивание,
(2) удалить старый торрент у себя из клиента (старые серии удалять не надо),
(3) скачать новый торрент и запустить его у себя в клиенте вместо старого, при этом указать клиенту путь в старую папку куда и должно происходить скачивание новых серий.
Ваш клиент при этом должен произвести хеширование (проверку) старой папки (если не производит сам - помогите ему сделать это), и будет докачивать только те серии которых у вас ещё нет. Старые серии при этом не удаляются, а продолжают раздаваться!
Если вы уже удалили старые серии, то предотвратить повторную закачку старых серий можно, отжав галочку в соответсвующих местах при запуске нового торрента. По возможности, желательно не удалять старые серии как можно дольше чтобы релизёр не столько продолжал раздавать старые серии, а смог сконцентрироваться на новых.
У вас нет необходимых прав для просмотра вложений в этом сообщении.