Сообщение

Семейное рождество Джейми / Jamie's Family Christmas [2009, Кулинарное шоу, DVB, RUS]

Сообщение Stepan » 18 сен 2016, 23:27

Семейное рождество Джейми / Jamie's Family Christmas

Страна: Соединённое Королевство Великобритании и Северной Ирландии
Тематика: Кулинарное шоу
Тип раздаваемого материала: Видеоурок
Продолжительность: 00:23:56
Год выпуска: 2009

Язык: Русский
Перевод: Профессиональный (одноголосый)

Язык субтитров: нет
Описание: Кулинарное Рождественское шоу Джейми Оливера.
серии:
1. "Рождественская индейка" - ( запеченная индейка, начинка для индейки, соус, индейка чили)
2. "Завтрак, обед и поздний завтрак" - (блинчики, салат с карпаччо из говядины, окорок и яйца, жаркое из риса с рыбой и яйцами)
3. "Жареный картофель и овощи" - (жареный картофель, жареные овощи, брускетта, жаркое bubble-and-squeak)
4. "Праздничные десерты" - (праздничный штрудель, шоколадный мусс, мороженое, зимний пудинг, желе)
5. "Праздник" - (паштет из куриной печени, гранатовые шоты и сидр, зимний суп)

Качество: DVB
Формат: TS
Видео кодек: MPEG2
Аудио кодек: MP2
Видео: MPEG2 Video 720x576 (4:3) 25fps [V: mpeg2 main, yuv420p, 720x576]
Аудио: MPEG Audio 48000Hz stereo 192kbps [A: mp2, 48000 Hz, stereo, 192 kb/s]
Код:
Код: Выделить всё
General
ID                          : 16 (0x10)
Complete name               : E:\Jamie\Jamie's Family Christmas\Jamie.Family.Christmas.S01.E01.DVB.ts
Format                      : MPEG-TS
File size                   : 714 MiB
Duration                    : 23mn 40s
Overall bit rate mode       : Variable
Overall bit rate            : 4 218 Kbps

Video
ID                          : 3009 (0xBC1)
Menu ID                     : 3 (0x3)
Format                      : MPEG Video
Format version              : Version 2
Format profile              : Main@Main
Format settings, BVOP       : Yes
Format settings, Matrix     : Custom
Format settings, GOP        : Variable
Format settings, picture st : Frame
Codec ID                    : 2
Duration                    : 23mn 40s
Bit rate mode               : Variable
Bit rate                    : 3 815 Kbps
Maximum bit rate            : 15.0 Mbps
Width                       : 720 pixels
Height                      : 576 pixels
Display aspect ratio        : 4:3
Frame rate                  : 25.000 fps
Standard                    : PAL
Color space                 : YUV
Chroma subsampling          : 4:2:0
Bit depth                   : 8 bits
Scan type                   : Interlaced
Scan order                  : Top Field First
Compression mode            : Lossy
Bits/(Pixel*Frame)          : 0.368
Time code of first frame    : 00:00:00:00
Time code source            : Group of pictures header
GOP, Open/Closed            : Open
Stream size                 : 646 MiB (90%)

Audio
ID                          : 406 (0x196)
Menu ID                     : 3 (0x3)
Format                      : MPEG Audio
Format version              : Version 1
Format profile              : Layer 2
Codec ID                    : 3
Duration                    : 23mn 40s
Bit rate mode               : Constant
Bit rate                    : 192 Kbps
Channel(s)                  : 2 channels
Sampling rate               : 48.0 KHz
Compression mode            : Lossy
Delay relative to video     : -40ms
Stream size                 : 32.5 MiB (5%)





Постеры

Соцсети

 

Статистика

Автор: Stepan
Добавлен: 18 сен 2016, 23:27
Размер: 3.49 ГБ
Размер: 3 745 605 780 байт
Сидеров: 3
Личеров: 1
Скачали: 0
Здоровье: 100%
Раздающих: 100%
Статус:
Скорость скачивания: 0 байт/сек
Скорость раздачи: 0 байт/сек
Последний сидер: 10 месяцев 12 дней 17 часов 12 минут 39 секунд назад
Последний личер: 10 месяцев 12 дней 17 часов 12 минут 39 секунд назад
Приватный: Нет (DHT включён)
Кулинария Скачать торрент
Скачать торрент
[ Размер 18.23 КБ / Просмотров 0 ]

Поделиться



Вернуться в Кулинария