Сообщение

Кулинарный поединок с Джейми Оливером / Jamie & Jimmy's Food Fight Club (1-4 из 1-4) [2012, Кулинарное шоу, HDTV, RUS/ENG]

Сообщение Stepan » 18 сен 2016, 23:28

Кулинарный поединок с Джейми Оливером / Jamie & Jimmy's Food Fight Club

Страна: Соединённое королевство Великобритании и Северной Ирландии
Тематика: Кулинарное шоу
Тип раздаваемого материала: Видеоурок
Продолжительность: 00:45:20
Год выпуска: 2012

Язык: Русский + Английский
Перевод: Профессиональный (многоголосый, закадровый)

Язык субтитров: нет
Описание: Джейми Оливер и Джимми Доэрти дружат со школьной скамьи. Оба всегда любили вкусно поесть. Теперь, когда они оба повзрослели и вернулись в родной Эссекс, они открыли небольшое кафе.

Вкусная еда от Джейми, немного науки от Джимми и встречи с очень особенными друзьями, среди которых Гвинет Пэлтроу, Алан Карр, Гари Барлоу и Джонатан Росс.

Качество: HDTV
Формат: TS
Видео кодек: AVC
Аудио кодек: MP2
Видео: AVC, 1920x1080 (16:9), 25.000 fps, 7 167 Kbps (0.138 bit/pixel)
Аудио: MP2, 48.0 KHz, 2 ch, 160 Kbps, CBR
Аудио 2: MP2, 48.0 KHz, 2 ch, 160 Kbps, CBR
Код:
Код: Выделить всё
General
ID                          : 0 (0x0)
Complete name               : E:\Jamie\Jamie and Jimmy's Food Fight Club HD\Jamie.And.Jimmys.Food.Fight.Club.S01E01.HDTV.ts
Format                      : MPEG-TS
File size                   : 2.64 GiB
Duration                    : 48mn 2s
Overall bit rate mode       : Variable
Overall bit rate            : 7 879 Kbps

Video
ID                          : 141 (0x8D)
Menu ID                     : 13002 (0x32CA)
Format                      : AVC
Format/Info                 : Advanced Video Codec
Format profile              : Main@L4
Format settings, CABAC      : Yes
Format settings, ReFrames   : 4 frames
Format settings, GOP        : M=3, N=12
Codec ID                    : 27
Duration                    : 48mn 2s
Bit rate                    : 7 167 Kbps
Width                       : 1 920 pixels
Height                      : 1 080 pixels
Display aspect ratio        : 16:9
Frame rate                  : 25.000 fps
Standard                    : Component
Color space                 : YUV
Chroma subsampling          : 4:2:0
Bit depth                   : 8 bits
Scan type                   : MBAFF
Scan order                  : Top Field First
Bits/(Pixel*Frame)          : 0.138
Stream size                 : 2.41 GiB (91%)
Color range                 : Limited
Color primaries             : BT.709
Transfer characteristics    : BT.709
Matrix coefficients         : BT.709

Audio #1
ID                          : 144 (0x90)
Menu ID                     : 13002 (0x32CA)
Format                      : MPEG Audio
Format version              : Version 1
Format profile              : Layer 2
Codec ID                    : 4
Duration                    : 48mn 2s
Bit rate mode               : Constant
Bit rate                    : 160 Kbps
Channel(s)                  : 2 channels
Sampling rate               : 48.0 KHz
Compression mode            : Lossy
Delay relative to video     : 23ms
Stream size                 : 55.0 MiB (2%)

Audio #2
ID                          : 145 (0x91)
Menu ID                     : 13002 (0x32CA)
Format                      : MPEG Audio
Format version              : Version 1
Format profile              : Layer 2
Codec ID                    : 4
Duration                    : 48mn 2s
Bit rate mode               : Constant
Bit rate                    : 160 Kbps
Channel(s)                  : 2 channels
Sampling rate               : 48.0 KHz
Compression mode            : Lossy
Delay relative to video     : 23ms
Stream size                 : 55.0 MiB (2%)





Постеры

Соцсети

 

Статистика

Автор: Stepan
Добавлен: 18 сен 2016, 23:28
Размер: 11.12 ГБ
Размер: 11 943 170 564 байт
Сидеров: 8
Личеров: 2
Скачали: 0
Здоровье: 100%
Раздающих: 100%
Статус:
Скорость скачивания: 0 байт/сек
Скорость раздачи: 0 байт/сек
Последний сидер: 10 месяцев 30 дней 21 час 13 минут 18 секунд назад
Последний личер: 10 месяцев 30 дней 21 час 13 минут 18 секунд назад
Приватный: Нет (DHT включён)
Кулинария Скачать торрент
Скачать торрент
[ Размер 56.38 КБ / Просмотров 3 ]

Поделиться



Вернуться в Кулинария