Джейми Оливер: Гастрономическая революция в прямом эфире из Сиднейского оперного театра / Jamie's Food Revolution Live [

Рецепты салатов, закусок, мясных блюд, горячих напитков и сладких блюд
Торрент Сидеров Личеров Размер
torrent_5149690.torrent
5 1 952.58 МБ
Аватара пользователя
Stepan
Администратор
Сообщения: 52267
Зарегистрирован: 05 ноя 2011, 20:36

Джейми Оливер: Гастрономическая революция в прямом эфире из Сиднейского оперного театра / Jamie's Food Revolution Live [

Сообщение Stepan » 18 сен 2016, 23:30

Джейми Оливер: Гастрономическая революция в прямом эфире из Сиднейского оперного театра / Jamie's Food Revolution Live

Страна: Австралийский Союз
Тематика: Кулинарное шоу
Тип раздаваемого материала: Кулинарное шоу
Продолжительность: 00:43:22
Год выпуска: 2015

Язык: Русский
Перевод: Профессиональный (многоголосый, закадровый)

Язык субтитров: нет
Описание: Джейми Оливер делится своей любовью к свежим продуктам и приготовлению еды, а также своим заразительным восторгом к Сиднейскому оперному театру перед аудиторией, насчитывающей более 2000 человек. В своём весёлом семейном живом шоу Джейми попросит каждого присоединиться к нему в его "пищевой революции" и подписать петицию с требованием ввести в план обучения каждой страны обязательный курс по кулинарному образованию.

Качество: DVB
Формат: TS
Видео кодек: MPEG2
Аудио кодек: MP2
Видео: MPEG 2, 720x576 (16:9), 25.000 fps, 5 000 Kbps (0.251 bit/pixel)
Аудио: MP2, 48.0 KHz, 2 ch, 192 Kbps, CBR
Аудио 2: MP2, 48.0 KHz, 2 ch, 192 Kbps, CBR
Код:

Код: Выделить всё

General
ID                          : 16 (0x10)
Complete name               : E:\Jamie\Jamie's.Food.Revolution.Live.DVB.ts
Format                      : MPEG-TS
File size                   : 953 MiB
Duration                    : 42mn 22s
Overall bit rate mode       : Variable
Overall bit rate            : 3 143 Kbps

Video
ID                          : 41 (0x29)
Menu ID                     : 3 (0x3)
Format                      : MPEG Video
Format version              : Version 2
Format profile              : Main@Main
Format settings, BVOP       : Yes
Format settings, Matrix     : Custom
Format settings, GOP        : Variable
Format settings, picture st : Frame
Codec ID                    : 2
Duration                    : 42mn 22s
Bit rate mode               : Variable
Bit rate                    : 2 599 Kbps
Maximum bit rate            : 5 000 Kbps
Width                       : 720 pixels
Height                      : 576 pixels
Display aspect ratio        : 16:9
Frame rate                  : 25.000 fps
Standard                    : PAL
Color space                 : YUV
Chroma subsampling          : 4:2:0
Bit depth                   : 8 bits
Scan type                   : Interlaced
Scan order                  : Top Field First
Compression mode            : Lossy
Bits/(Pixel*Frame)          : 0.251
Time code of first frame    : 00:00:00:00
Time code source            : Group of pictures header
GOP, Open/Closed            : Open
Stream size                 : 788 MiB (83%)
Writing library             : (dvd5: Jun 16 2014)

Audio #1
ID                          : 44 (0x2C)
Menu ID                     : 3 (0x3)
Format                      : MPEG Audio
Format version              : Version 1
Format profile              : Layer 2
Mode                        : Joint stereo
Mode extension              : Intensity Stereo + MS Stereo
Codec ID                    : 3
Duration                    : 42mn 22s
Bit rate mode               : Constant
Bit rate                    : 192 Kbps
Channel(s)                  : 2 channels
Sampling rate               : 48.0 KHz
Compression mode            : Lossy
Stream size                 : 58.2 MiB (6%)

Audio #2
ID                          : 45 (0x2D)
Menu ID                     : 3 (0x3)
Format                      : MPEG Audio
Format version              : Version 1
Format profile              : Layer 2
Mode                        : Joint stereo
Mode extension              : Intensity Stereo + MS Stereo
Codec ID                    : 3
Duration                    : 42mn 22s
Bit rate mode               : Constant
Bit rate                    : 192 Kbps
Channel(s)                  : 2 channels
Sampling rate               : 48.0 KHz
Compression mode            : Lossy
Stream size                 : 58.2 MiB (6%)



У вас нет необходимых прав для просмотра вложений в этом сообщении.