Сообщение

Все будет вкусно / Все буде смачно, Выпуск 117-149 [2015, Кулинария, WEBRip, RUS] (Видеоурок)

Сообщение Stepan » 18 сен 2016, 23:31

Все будет вкусно / Все буде смачно

Страна: Украина
Тематика: Кулинария
Тип раздаваемого материала: Видеоурок
Продолжительность: ~00:50:00
Год выпуска: 2015

Язык: Русский
Перевод: Не требуется

Описание: Каждый из нас хочет развивать свои навыки, и кулинарные способности среди них не исключение. Новый кулинарный проект собственного производства телеканала СТБ «Все буде смачно!» помогает достичь идеала каждому, кто чувствует в себе желание овладеть мастерством приготовления различных блюд.

Программа стартовала в эфире 26 октября 2013 года и с первого же выпуска полюбилась миллионам телезрителей. Проект выходит каждую субботу и воскресенье в 9:00. Впервые на телеканале СТБ в кулинарном проекте используются такие технологии съемки, как slowmotion и макросъемка, чтобы максимально точно объяснить и показать процесс приготовления вкусных шедевров.

Экспертами проекта стали лучшие кулинары Украины – Эктор Хименес-Браво, Сергей Калинин, Татьяна Литвинова и Алла Ковальчук. Они вместе с ведущей Надеждой Матвеевой каждый выпуск программы обучают приглашенных звезд всем секретам и тонкостям кулинарного мастерства и раскрывают секреты, которые таят в себе самые любимые и привычные блюда. Ведь часто из-за какого-то незначительного нюанса не удается приготовить действительно вкусно.

Доп. информация: Выпуски 117-149

Качество: WEBRip
Формат: MP4
Видео кодек: AVC
Аудио кодек: AAC
Видео: AVC, 640x480, 25.00fps, 800 kbps
Аудио: AAC, 48 kHz, AAC, 2 ch, 128.00 kbps
Общее
Полное имя : Z:\Все буде смачно\117.(03.01.2015).Рождественское украшение – кутья.mp4
Формат : MPEG-4
Профиль формата : Base Media
Идентификатор кодека : isom
Размер файла : 306 Мбайт
Продолжительность : 46 м.
Режим общего битрейта : Постоянный
Общий поток : 929 Кбит/сек
Программа кодирования : Lavf55.12.100

Видео
Идентификатор : 2
Формат : AVC
Формат/Информация : Advanced Video Codec
Профиль формата : Baseline@L3.0
Параметр CABAC формата : Нет
Параметр ReFrames формата : 2 кадра
Параметр GOP формата : M=1, N=12
Идентификатор кодека : avc1
Идентификатор кодека/Информация : Advanced Video Coding
Продолжительность : 46 м.
Вид битрейта : Постоянный
Битрейт : 800 Кбит/сек
Ширина : 640 пикселей
Высота : 480 пикселей
Соотношение сторон : 4:3
Режим частоты кадров : Постоянный
Частота кадров : 25,000 кадров/сек
Цветовое пространство : YUV
Субдискретизация насыщенности : 4:2:0
Битовая глубина : 8 бит
Тип развёртки : Прогрессивная
Бит/(Пиксели*Кадры) : 0.104
Размер потока : 262 Мбайт (86%)

Аудио
Идентификатор : 1
Формат : AAC
Формат/Информация : Advanced Audio Codec
Профиль формата : LC
Идентификатор кодека : 40
Продолжительность : 46 м.
Duration_LastFrame : -9 мс.
Вид битрейта : Постоянный
Битрейт : 128 Кбит/сек
Каналы : 2 канала
Расположение каналов : Front: L R
Частота : 48,0 КГц
Метод сжатия : С потерями
Размер потока : 42,2 Мбайт (14%)
Язык : English
***************************************

Постеры

Соцсети

 

Статистика

Автор: Stepan
Добавлен: 18 сен 2016, 23:31
Размер: 9.93 ГБ
Размер: 10 662 125 295 байт
Сидеров: 2
Личеров: 1
Скачали: 0
Здоровье: 100%
Раздающих: 100%
Статус:
Скорость скачивания: 0 байт/сек
Скорость раздачи: 0 байт/сек
Последний сидер: 7 месяцев 7 дней 20 часов 59 минут 31 секунду назад
Последний личер: 7 месяцев 7 дней 20 часов 59 минут 31 секунду назад
Приватный: Нет (DHT включён)
Кулинария Скачать торрент
Скачать торрент
[ Размер 102.72 КБ / Просмотров 0 ]

Поделиться



Вернуться в Кулинария