Сообщение

Рыба. От филе до фарша (46 выпусков) [2014-2015, Кулинарное шоу, WEB-DL, 720p, RUS] [2014-2015, Кулинария, RUS] (Видеоурок)

Сообщение Stepan » 18 сен 2016, 23:31

Рыба. От филе до фарша

Год выпуска: 2014-2015
Страна: Россия
Тематика: Кулинария
Тип раздаваемого материала: Видеоурок
Продолжительность: 15-30 минут на выпуск
Перевод: Не требуется

Описание: Сергей Малаховский считает, что рыбу готовить просто.
В его умелых руках все получается вкусно: и самая простая треска,
и модная камбала, и водянистая зубатка. Специально для любителей
рыбы и тех, кто просто хочет разнообразить мясной рацион —
вся палитра рыбных блюд: салаты, супы, пироги, котлеты, рулеты!

Качество: WEB-DL
Формат: MP4
Видео кодек: AVC
Аудио кодек: AAC
Видео: 1280x720 25.00fps, ~2500 Kbit/sec
Аудио: Russian: AAC, 192 kb/s (2 ch)
Жареная камбала с лимонным желе
Жареная пикша с картофельными кнелями
Жареная тилапия с рисом и кунжутным соусом
Жареный белый амур на одесский манер
Жаркое из судака и семги с овощами
Запеченная камбала с луком и пряной фасолью
Запеченная осетрина с укропом и черным перцем
Кнели из трески с томатным пюре
Котлетки из камбалы с соусом из грибов и кабачков
Крем-суп из горбуши с овощами
Маринованный морской окунь с сельдереем и виноградом
Морской язык в картофельной рубашке
Морской язык с картофельными бочонками
Осетрина гриль с цветной капустой и водка-соусом
Открытый пирог с камбалой и палтусом
Паштет из пикши с хлебом и сладким перцем
Пикша в маринаде с пюре
Пошированный пангасиус с соусом из авокадо
Припущенный толстолобик с брокколи и голубым соусом
Пятиминутка из белого амура с лечо
Разноцветный суп с пангасиусом и тилапией
Салат из толстолобика с желтым соусом
Салат из щуки с гренками и кунжутным соусом
Салат мимоза в новом стиле
Семга гриль с креветочным соусом
Семга терияки с овощами и яичными хлопьями
Средиземноморский салат с пангасиусом
Строганина из зубатки
Суп из камбалы с рисом и горохом
Суп из морского окуня с тертым картофелем
Суп из снетков с зеленой сметаной
Теплый салат из белого амура
Теплый салат с хрустящей семгой
Тилапия на индийский манер с пряным рисом
Тилапия, припущенная в морковном соусе
Толстолобик в томатном соусе
Треска под белым маринадом
Уха из стерляди с копченой форелью
Фалафель с треской и тремя соусами
Фаршированная щука с соусом из раковых шеек
Филе морского языка с брускеттой
Филе тилапии в зеленом кляре
Хворост из трески и семги с огуречной райтой
Шашлык из зубатки с луковым конфитюром
Штрудель с горбушей и нутовой пастой
Щука с овощами в рукаве
General
Format : MPEG-4
Format profile : Base Media / Version 2
Codec ID : mp42
File size : 502 MiB
Duration : 26mn 59s
Overall bit rate mode : Variable
Overall bit rate : 2 599 Kbps
Encoded date : UTC 2014-06-18 12:02:11
Tagged date : UTC 2014-06-18 12:02:11
gsst : 0
gstd : 1619103
gssd : B6DC28946HH1409082496405909
gshh : r3---sn-xguxaxjvh-2x1e.googlevideo.com

Video
ID : 1
Format : AVC
Format/Info : Advanced Video Codec
Format profile : High@L3.1
Format settings, CABAC : Yes
Format settings, ReFrames : 1 frame
Format settings, GOP : M=1, N=60
Codec ID : avc1
Codec ID/Info : Advanced Video Coding
Duration : 26mn 59s
Bit rate : 2 404 Kbps
Maximum bit rate : 5 700 Kbps
Width : 1 280 pixels
Height : 720 pixels
Display aspect ratio : 16:9
Frame rate mode : Constant
Frame rate : 25.000 fps
Color space : YUV
Chroma subsampling : 4:2:0
Bit depth : 8 bits
Scan type : Progressive
Bits/(Pixel*Frame) : 0.104
Stream size : 464 MiB (93%)
Tagged date : UTC 2014-06-18 12:03:38

Audio
ID : 2
Format : AAC
Format/Info : Advanced Audio Codec
Format profile : LC
Codec ID : 40
Duration : 26mn 59s
Bit rate mode : Variable
Bit rate : 192 Kbps
Maximum bit rate : 201 Kbps
Channel(s) : 2 channels
Channel positions : Front: L R
Sampling rate : 44.1 KHz
Compression mode : Lossy
Stream size : 37.1 MiB (7%)
Title : IsoMedia File Produced by Google, 5-11-2011
Encoded date : UTC 2014-06-18 12:03:08
Tagged date : UTC 2014-06-18 12:03:38

Постеры

Соцсети

 

Статистика

Автор: Stepan
Добавлен: 18 сен 2016, 23:31
Размер: 20.34 ГБ
Размер: 21 845 076 847 байт
Сидеров: 9
Личеров: 5
Скачали: 0
Здоровье: 100%
Раздающих: 100%
Статус:
Скорость скачивания: 0 байт/сек
Скорость раздачи: 0 байт/сек
Последний сидер: 10 месяцев 30 дней 11 часов 51 минуту 33 секунды назад
Последний личер: 10 месяцев 30 дней 11 часов 51 минуту 33 секунды назад
Приватный: Нет (DHT включён)
Кулинария Скачать торрент
Скачать торрент
[ Размер 106.83 КБ / Просмотров 1 ]

Поделиться



Вернуться в Кулинария