Сообщение

Неделя за один день с Рэйчел Рэй. сезоны 2-3 / Rachel Ray's week in a day.seazons 2-3 / 17 выпусков из 17 [2011-2012 , ТВ-шоу, кулинария, SATRip, RUS] (Видеоурок)

Сообщение Stepan » 18 сен 2016, 23:32

Неделя за один день с Рэйчел Рэй. сезоны 2-3 / Rachel Ray's week in a day.seazons 2-3 / 17 выпусков из 17

Страна: США
Тематика: ТВ-шоу, кулинария
Тип раздаваемого материала: Видеоурок
Продолжительность: ~ 00:40:50
Год выпуска: 2011-2012

Язык: Русский
Перевод: Профессиональный (одноголосый)

Описание: Рэйчел Рэй — женщина, добившаяся невероятных успехов на кулинарном поприще, а все потому, что устраивала кулинарные шоу и писала о еде для тех, кто... не любит готовить. Ее знаменитая концепция "еда за 30 минут" заставила подойти к плите не только тех, у кого вечно не хватает времени, но и безнадежных лентяев и неумех.

Релиз:
Tarjaa


MediaInfo:
General
Complete name : Rachel Ray's week in a day.seazon.2_Tarjaa\Rachel Ray's week in a day.seazon.2.v.05.XviD.SATRip_Tarjaa.avi
Format : AVI
Format/Info : Audio Video Interleave
File size : 499 MiB
Duration : 40mn 11s
Overall bit rate : 1 737 Kbps
Writing application : VirtualDubMod 1.5.10.3 | www.virtualdub-fr.org || (build 2550/release)
Writing library : VirtualDubMod build 2550/release

Video
ID : 0
Format : MPEG-4 Visual
Format profile : Advanced Simple@L5
Format settings, BVOP : 1
Format settings, QPel : No
Format settings, GMC : No warppoints
Format settings, Matrix : Default (H.263)
Codec ID : XVID
Codec ID/Hint : XviD
Duration : 40mn 11s
Bit rate : 1 599 Kbps
Width : 704 pixels
Height : 400 pixels
Display aspect ratio : 16:9
Frame rate : 25.000 fps
Color space : YUV
Chroma subsampling : 4:2:0
Bit depth : 8 bits
Scan type : Progressive
Compression mode : Lossy
Bits/(Pixel*Frame) : 0.227
Stream size : 460 MiB (92%)
Writing library : XviD 1.2.1 (UTC 2008-12-04)

Audio
ID : 1
Format : MPEG Audio
Format version : Version 1
Format profile : Layer 3
Codec ID : 55
Codec ID/Hint : MP3
Duration : 40mn 11s
Bit rate mode : Constant
Bit rate : 128 Kbps
Channel count : 2 channels
Sampling rate : 48.0 KHz
Compression mode : Lossy
Stream size : 36.8 MiB (7%)
Alignment : Aligned on interleaves
Interleave, duration : 40 ms (1.00 video frame)
Interleave, preload duration : 504 ms
Writing library : LAME3.98r
Encoding settings : -m s -V 4 -q 2 -lowpass 17 -b 128
Качество: SATRip
Формат: AVI
Видео кодек: XviD
Аудио кодек: MP3
Видео: Xvid 704x400 25.00fps ~ 1600 Кбит/с
Аудио: MPEG Audio Layer 3 48000Hz stereo 128kbps [Stream 01]
Добавлен 3 сезон (11 серий)
перезалейте торрент

Постеры

Соцсети

 

Статистика

Автор: Stepan
Добавлен: 18 сен 2016, 23:32
Размер: 8.26 ГБ
Размер: 8 873 977 856 байт
Сидеров: 49
Личеров: 3
Скачали: 0
Здоровье: 100%
Раздающих: 100%
Статус:
Скорость скачивания: 0 байт/сек
Скорость раздачи: 0 байт/сек
Последний сидер: 10 месяцев 28 дней 15 часов 12 минут 6 секунд назад
Последний личер: 10 месяцев 28 дней 15 часов 12 минут 6 секунд назад
Приватный: Нет (DHT включён)
Кулинария Скачать торрент
Скачать торрент
[ Размер 44.1 КБ / Просмотров 2 ]

Поделиться



Вернуться в Кулинария