Кулинарная Магия Winx / RICETTE A COLORI (Выпуск 1-12,14-15,18-25 из 52) [Кулинарное Шоу, SATRip, RUS]

Рецепты салатов, закусок, мясных блюд, горячих напитков и сладких блюд
Торрент Сидеров Личеров Размер
torrent_5062417.torrent
1 4 1.82 ГБ
Аватара пользователя
Stepan
Администратор
Сообщения: 52386
Зарегистрирован: 05 ноя 2011, 20:36

Кулинарная Магия Winx / RICETTE A COLORI (Выпуск 1-12,14-15,18-25 из 52) [Кулинарное Шоу, SATRip, RUS]

Сообщение Stepan » 18 сен 2016, 23:32

Кулинарная Магия Winx / RICETTE A COLORI

Страна: Италия
Тематика: Кулинарное Шоу
Тип раздаваемого материала: Видео
Продолжительность: ~00:10:00
Язык: Русский
Перевод: Профессиональный (многоголосый, закадровый)

Описание: Клуб Винкс очень любят готовить различные вкусные и полезные для здоровья блюда. Теперь они поделятся своими рецептами и специально для тебя, чтобы ты умел(а) готовить здоровую пищу.
Вместе с поваром Алессандро Чирчелло и ведущей канала RaiGulp, Каролиной Рей, ты научишься готовить блюда из самых разных продуктов, гастрономические предпочтения которых соответствует одной из Винкс. Например, Флора любит фрукты и овощи, Блум - бобовые, Стелла - злаки, Муза - мясо и яйца, Текна - молочные продукты, а Лейла - рыбу и воду.
01й - Biscotti alle mandorle (Миндальное печенье)
02й - Biscotti Al Cioccolato diamantati (Шоколадное печенье)
03й - Insalata di tonno e arance (Салат с тунцом и апельсинами)
04й - Risotto mantecato al parmigiani bieta e cavolo rosso (Измельчённое ризотто с пармезаном, свеклой и красной капустой)
05й - Salame al cioccolato (Шоколадная колбаска)
06й - Bicchiere goloso (Лакомый стаканчик)
07й - Riso con le fragole (Рис с клубникой)
08й - Toast gustoso (Вкусный тост)
09й - Gamberi al riso soffiato (Креветки с воздушным рисом)
10й - Sbrisolona (Выпечка "Збризолона")
11й - Lenticchie alla marocchina (Чечевица по-мароккански)
12й - Spaghetti integrali con capperi e alici (Цельные спагетти с каперсами и анчоусами)
14й - Fiori di zucca alla ricotta (Цветки тыквы с рикоттой)
15й - Orecchiette con le olive (Ушки с оливками)
18й - Torta di pane raffermo (Пирог из черствого хлеба)
19й - Gelato biscottato (Пироженка-мороженка)
20й - Torta All'acqua (Сладкий пирог на воде)
21й - Fusilli ricotta e noci (Фузилли с рикоттой и орехами) - Фузилли - сорт макаронных изделий спиралевидной формы
22й - Cubi di carote su fondo viola (Фиолетовый картофель с морковью)
23й - Crocchette di merluzzo (Крокет из трески)
24й - Torta di fragole e cioccolato bianco (Клубничный торт с белым шоколадом)
25й - Paccheri melanzane e calamari (Паста "Паккери" с баклажанами и кальмарами)
Качество: SATRip
Формат: MKV
Видео кодек: H.264
Аудио кодек: AC3
Видео: H264, 720x400 (16:9), 25.000 fps, 1800 Kbps (0.250 bit/pixel)
Аудио: AC-3 Dolby Digital, 48.0 KHz, 2 ch, 192 Kbps, CBR ( c)
General
Unique ID : 213435133841047615426464140284148105215 (0xA0921C8E347F368AAE06FF277060BFFF)
Complete name : D:\Библиотеки\Видеотека\Видеотека (Рипы)\Мультфильмы\AVC-Rips(MKV)\Кулинарная Магия Winx\Кулинарная Магия Winx Выпуск01.mkv
Format : Matroska
Format version : Version 2
File size : 81.5 MiB
Duration : 5mn 43s
Overall bit rate : 1 993 Kbps
Encoded date : UTC 2015-08-17 14:36:31
Writing application : mkvmerge v7.8.0 ('River Man') 32bit built on Apr 3 2015 12:11:22
Writing library : libebml v1.3.1 + libmatroska v1.4.2

Video
ID : 1
Format : AVC
Format/Info : Advanced Video Codec
Format profile : High@L4.1
Format settings, CABAC : Yes
Format settings, ReFrames : 11 frames
Codec ID : V_MPEG4/ISO/AVC
Duration : 5mn 43s
Bit rate : 1 800 Kbps
Width : 720 pixels
Height : 400 pixels
Display aspect ratio : 16:9
Frame rate mode : Constant
Frame rate : 25.000 fps
Color space : YUV
Chroma subsampling : 4:2:0
Bit depth : 8 bits
Scan type : Progressive
Bits/(Pixel*Frame) : 0.250
Stream size : 72.0 MiB (88%)
Writing library : x264 core 146 r2538 121396c
Encoding settings : cabac=1 / ref=11 / deblock=1:-2:-1 / analyse=0x3:0x133 / me=umh / subme=10 / psy=1 / psy_rd=1.00:0.20 / mixed_ref=1 / me_range=16 / chroma_me=1 / trellis=2 / 8x8dct=1 / cqm=0 / deadzone=21,11 / fast_pskip=0 / chroma_qp_offset=-3 / threads=6 / lookahead_threads=1 / sliced_threads=0 / nr=0 / decimate=0 / interlaced=0 / bluray_compat=0 / constrained_intra=0 / bframes=4 / b_pyramid=2 / b_adapt=2 / b_bias=0 / direct=3 / weightb=1 / open_gop=0 / weightp=2 / keyint=250 / keyint_min=25 / scenecut=40 / intra_refresh=0 / rc_lookahead=60 / rc=2pass / mbtree=1 / bitrate=1800 / ratetol=1.0 / qcomp=0.60 / qpmin=0 / qpmax=69 / qpstep=4 / cplxblur=20.0 / qblur=0.5 / ip_ratio=1.40 / aq=1:1.00
Default : Yes
Forced : No

Audio
ID : 2
Format : AC-3
Format/Info : Audio Coding 3
Mode extension : CM (complete main)
Format settings, Endianness : Big
Codec ID : A_AC3
Duration : 5mn 43s
Bit rate mode : Constant
Bit rate : 192 Kbps
Channel(s) : 2 channels
Channel positions : Front: L R
Sampling rate : 48.0 KHz
Bit depth : 16 bits
Compression mode : Lossy
Stream size : 7.85 MiB (10%)
Default : Yes
Forced : No
У вас нет необходимых прав для просмотра вложений в этом сообщении.