Сообщение

Большой побег Гордона / Gordon's Great Escape / Gordon Ramsay's Great Escape / Сезон: 1-2 / Выпуск 1-7 (7) [2010-2011 г., Кулинария, SATRip] RUS

Сообщение Stepan » 18 сен 2016, 23:33

#7
Большой побег Гордона / Gordon's Great Escape


Страна: Великобритания
Тематика: кулинария
Тип раздаваемого материала: реалити-шоу
Продолжительность: ~ 00:45:00
Год выпуска: 2010-2011
Язык: Русский
Перевод: Профессиональный (двухголосый)
Описание: Знаменитый супершеф Гордон Рамзи профессионально готовит уже 25 лет, но по-прежнему любит учиться всему новому и уникальному. Он отправляется в большое путешествие (в первом сезоне по Индии, во втором по Таиланду, Камбодже, Малайзии и Вьетнаму), чтобы усовершенствовать свои гастрономические знания и навыки. В этом приключении, полном незабываемых вкусов и традиций, Гордон с удовольствием поучаствует в местных экстремальных мероприятиях, отведает самые экзотические блюда и узнает множество кулинарных секретов от коренных жителей.
Рип: Tarjaa l Качество: SATRip l Формат: AVI l Видео кодек: XviD l Аудио кодек: MP3


Видео: Xvid 720x400 ~1550 Kbps 25fps 0.215 bit/pixel
Аудио: MPEG Audio Layer 3 48000Hz stereo 128kbps [Rus] l Сэмпл
(Технические параметры и озвучивание для обоих сезонов одинаковые)
E:\Video\Com\Gordon's Great Escape\Gordon's Great Escape.2010\Gordon's Great Escape.s.01.v.01.India-Mangala Express_Tarjaa.avi
General
Complete name : E:\Video\Com\Gordon's Great Escape\Gordon's Great Escape.2010\Gordon's Great Escape.s.01.v.01.India-Mangala Express_Tarjaa.avi
Format : AVI
Format/Info : Audio Video Interleave
File size : 598 MiB
Duration : 49mn 31s
Overall bit rate : 1 688 Kbps
Writing application : VirtualDubMod 1.5.10.3 (build 2550/release)
Writing library : VirtualDubMod build 2550/release
Video #0
ID : 0
Format : MPEG-4 Visual
Format profile : Advanced Simple@L5
Format settings, BVOP : 1
Format settings, QPel : No
Format settings, GMC : No warppoints
Format settings, Matrix : Default (H.263)
Codec ID : XVID
Codec ID/Hint : XviD
Duration : 49mn 31s
Bit rate : 1 550 Kbps
Width : 720 pixels
Height : 400 pixels
Display aspect ratio : 16:9
Frame rate : 25.000 fps
Color space : YUV
Chroma subsampling : 4:2:0
Bit depth : 8 bits
Scan type : Progressive
Compression mode : Lossy
Bits/(Pixel*Frame) : 0.215
Stream size : 549 MiB (92%)
Writing library : XviD 1.2.1 (UTC 2008-12-04)
Audio #1
ID : 1
Format : MPEG Audio
Format version : Version 1
Format profile : Layer 3
Mode : Joint stereo
Mode extension : MS Stereo
Codec ID : 55
Codec ID/Hint : MP3
Duration : 49mn 31s
Bit rate mode : Constant
Bit rate : 128 Kbps
Channel(s) : 2 channels
Sampling rate : 48.0 KHz
Compression mode : Lossy
Stream size : 45.3 MiB (8%)
Alignment : Aligned on interleaves
Interleave, duration : 40 ms (1.00 video frame)
Interleave, preload duration : 504 ms
1 сезон (Индия):
1-я серия - "Mangala Express"
2-я серия - "Northeast India"
3-я серия - "Kerala"
2 сезон (Юго-Восточная Азия):
1-я серия - "Cambodia"
2-я серия - "Vietnam"
3-я серия - "Malaysia"
4-я серия - "Thailand"

Постеры

Соцсети

 

Статистика

Автор: Stepan
Добавлен: 18 сен 2016, 23:33
Размер: 3.86 ГБ
Размер: 4 143 183 872 байт
Сидеров: 14
Личеров: 4
Скачали: 0
Здоровье: 100%
Раздающих: 100%
Статус:
Скорость скачивания: 0 байт/сек
Скорость раздачи: 0 байт/сек
Последний сидер: 9 месяцев 6 дней 5 часов 19 минут 43 секунды назад
Последний личер: 9 месяцев 6 дней 5 часов 19 минут 43 секунды назад
Приватный: Нет (DHT включён)
Кулинария Скачать торрент
Скачать торрент
[ Размер 20.52 КБ / Просмотров 0 ]

Поделиться



  • Похожие торренты
    Ответы
    Просмотры
    Последнее сообщение

Вернуться в Кулинария