Сообщение

Джейми Оливер. Готовим за 15 минут / Jamie’s 15 minute meals (1-40 из 40)[2012, Кулинарное шоу, DVB, RUS/ENG]

Сообщение Stepan » 18 сен 2016, 23:35

Джейми Оливер. Готовим за 15 минут / Jamie’s 15 minute meals

Страна: Великобритания
Тематика: Кулинарное шоу
Тип раздаваемого материала: Видеоурок
Продолжительность: 00:23:29
Год выпуска: 2012

Язык: Русский + Английский
Перевод: Профессиональный (одноголосый) - FoxLife

Описание: Джейми Оливер, в свое время научивший Великобританию и весь мир, как приготовить обед за полчаса, на этот раз решил пойти дальше и установил новый норматив: 15 минут – и ни секундой больше! Именно столько времени занимает приготовление каждого обеда в новом телешоу Джейми. Очевидно, что просто так обед (пусть даже небольшой, состоящий обычно из основного блюда с гарниром) за 15 минут не приготовить, так что в ход идет множество хитростей, секретов и трюков, здорово сокращающих время готовки. Именно в них основная изюминка этого телешоу, основная задача которого – привлечь на кухню тех, кто не прочь смыться оттуда как можно скорее.

Доп. информация:

Чистая запись с канала FoxLife без перекодирования.

Качество: DVB
Формат: MPG / TS
Видео кодек: MPEG2
Аудио кодек: MP2
Видео: MPEG 2, 720x576 (16:9), 25.000 fps, 2 436 Kbps (0.241 bit/pixel)
Аудио: MPEG Audio 48000Hz stereo 192kbps [Audio] [RU]
Аудио 2: MPEG Audio 48000Hz stereo 192kbps [Audio] [EN]
Код:
Код: Выделить всё
General
ID                                       : 16 (0x10)
Complete name                            : E:\15 min\Jamies.15.Minute.Meals.S01E01.DVB.mpg
Format                                   : MPEG-TS
File size                                : 499 MiB
Duration                                 : 23mn 29s
Overall bit rate mode                    : Variable
Overall bit rate                         : 2 971 Kbps

Video
ID                                       : 76 (0x4C)
Menu ID                                  : 1 (0x1)
Format                                   : MPEG Video
Format version                           : Version 2
Format profile                           : Main@Main
Format settings, BVOP                    : Yes
Format settings, Matrix                  : Custom
Format settings, GOP                     : Variable
Codec ID                                 : 2
Duration                                 : 23mn 29s
Bit rate mode                            : Variable
Bit rate                                 : 2 436 Kbps
Maximum bit rate                         : 15.0 Mbps
Width                                    : 720 pixels
Height                                   : 576 pixels
Display aspect ratio                     : 16:9
Frame rate                               : 25.000 fps
Standard                                 : PAL
Color space                              : YUV
Chroma subsampling                       : 4:2:0
Bit depth                                : 8 bits
Scan type                                : Interlaced
Scan order                               : Top Field First
Compression mode                         : Lossy
Bits/(Pixel*Frame)                       : 0.235
Time code of first frame                 : 00:00:00:00
Time code source                         : Group of pictures header
Stream size                              : 409 MiB (82%)

Audio #1
ID                                       : 73 (0x49)
Menu ID                                  : 1 (0x1)
Format                                   : MPEG Audio
Format version                           : Version 1
Format profile                           : Layer 2
Codec ID                                 : 3
Duration                                 : 23mn 29s
Bit rate mode                            : Constant
Bit rate                                 : 192 Kbps
Channel count                            : 2 channels
Sampling rate                            : 48.0 KHz
Compression mode                         : Lossy
Stream size                              : 32.3 MiB (6%)

Audio #2
ID                                       : 74 (0x4A)
Menu ID                                  : 1 (0x1)
Format                                   : MPEG Audio
Format version                           : Version 1
Format profile                           : Layer 2
Codec ID                                 : 3
Duration                                 : 23mn 29s
Bit rate mode                            : Constant
Bit rate                                 : 192 Kbps
Channel count                            : 2 channels
Sampling rate                            : 48.0 KHz
Compression mode                         : Lossy
Stream size                              : 32.3 MiB (6%)





Постеры

Соцсети

 

Статистика

Автор: Stepan
Добавлен: 18 сен 2016, 23:35
Размер: 19.29 ГБ
Размер: 20 715 026 844 байт
Сидеров: 35
Личеров: 15
Скачали: 2
Здоровье: 100%
Раздающих: 100%
Статус:
Скорость скачивания: 0 байт/сек
Скорость раздачи: 0 байт/сек
Последний сидер: 7 месяцев 8 дней 2 часа 9 минут 54 секунды назад
Последний личер: 7 месяцев 8 дней 2 часа 9 минут 54 секунды назад
Приватный: Нет (DHT включён)
Кулинария Скачать торрент
Скачать торрент
[ Размер 27.21 КБ / Просмотров 16 ]

Поделиться



Вернуться в Кулинария