Сообщение

Кулинарные путешествия Джейми Оливера / Jamie's Food Escapes (1-6 из 1-6) [2010, Кулинарное шоу, DVB, RUS]

Сообщение Stepan » 18 сен 2016, 23:35

Кулинарные путешествия Джейми Оливера / Jamie's Food Escapes

Страна: Соединённое Королевство Великобритании и Северной Ирландии
Тематика: Кулинарное шоу
Тип раздаваемого материала: Видеоурок
Продолжительность: 00:47:42
Год выпуска: 2010

Язык: Русский
Перевод: Профессиональный (одноголосый)

Язык субтитров: нет
Описание: После американской поездки и великого итальянского побега, Джейми Оливер вернулся на дорогу кулинарных экспедиций по всей Европе и Северной Африке. В этой новой серии, Джеми посещает шесть мест - Марракеш, Афины, Андалусия, Стокгольм, Венеция и Миди Пиренеи во Франции. В каждом эпизоде, Джейми также погружается в уникальную культуру каждого пункта пребывания, исследует рынки, и узнает о традиционной практике приготовления местных жителей.
Эпизод 1 - Джейми в Марракеше / Marrakesh.
Эпизод 2 - Джейми в Андалусии / Andalucia.
Эпизод 3 - Джейми в Стокгольме / Stockholm.
Эпизод 4 - Джейми в Венеции / Venice.
Эпизод 5 - Джейми в Пиренеях / The French Pyrenees
Эпизод 6 - Джейми в Афинах / Athens.

Доп. информация:


Чистая запись с канала FoxLife без перекодирования.
Код:
Код: Выделить всё
General
ID                                       : 16 (0x10)
Complete name                            : E:\Jamie\Jamie's Food Escapes SD\Jamie's.Food.Escapes.DVB.Andalucia.ts
Format                                   : MPEG-TS
File size                                : 1.27 GiB
Duration                                 : 46mn 33s
Overall bit rate mode                    : Variable
Overall bit rate                         : 3 896 Kbps

Video
ID                                       : 41 (0x29)
Menu ID                                  : 3 (0x3)
Format                                   : MPEG Video
Format version                           : Version 2
Format profile                           : Main@Main
Format settings, BVOP                    : Yes
Format settings, Matrix                  : Custom
Format settings, GOP                     : Variable
Format settings, picture structure       : Frame
Codec ID                                 : 2
Duration                                 : 46mn 33s
Bit rate mode                            : Variable
Bit rate                                 : 3 315 Kbps
Maximum bit rate                         : 3 400 Kbps
Width                                    : 720 pixels
Height                                   : 576 pixels
Display aspect ratio                     : 16:9
Frame rate                               : 25.000 fps
Standard                                 : PAL
Color space                              : YUV
Chroma subsampling                       : 4:2:0
Bit depth                                : 8 bits
Scan type                                : Interlaced
Scan order                               : Top Field First
Compression mode                         : Lossy
Bits/(Pixel*Frame)                       : 0.320
Time code of first frame                 : 00:00:00:00
Time code source                         : Group of pictures header
Stream size                              : 1.08 GiB (85%)
Writing library                          : (dvd5: Jun 16 2014)

Audio #1
ID                                       : 44 (0x2C)
Menu ID                                  : 3 (0x3)
Format                                   : MPEG Audio
Format version                           : Version 1
Format profile                           : Layer 2
Codec ID                                 : 3
Duration                                 : 46mn 33s
Bit rate mode                            : Constant
Bit rate                                 : 192 Kbps
Channel(s)                               : 2 channels
Sampling rate                            : 48.0 KHz
Compression mode                         : Lossy
Stream size                              : 63.9 MiB (5%)

Audio #2
ID                                       : 45 (0x2D)
Menu ID                                  : 3 (0x3)
Format                                   : MPEG Audio
Format version                           : Version 1
Format profile                           : Layer 2
Codec ID                                 : 3
Duration                                 : 46mn 33s
Bit rate mode                            : Constant
Bit rate                                 : 192 Kbps
Channel(s)                               : 2 channels
Sampling rate                            : 48.0 KHz
Compression mode                         : Lossy
Stream size                              : 63.9 MiB (5%)

Качество: DVB
Формат: TS
Видео кодек: MPEG2
Аудио кодек: MP2
Видео: MPEG2 Video 720x576 (16:9) 25fps [V: mpeg2 main, yuv420p, 720x576]
Аудио 1: MPEG Audio 48000Hz stereo 96kbps [A: mp2, 48000 Hz, stereo, 96 kb/s]
Аудио 2: MPEG Audio 48000Hz stereo 96kbps [A: mp2, 48000 Hz, stereo, 96 kb/s]




Постеры

Соцсети

 

Статистика

Автор: Stepan
Добавлен: 18 сен 2016, 23:35
Размер: 7.82 ГБ
Размер: 8 394 960 460 байт
Сидеров: 5
Личеров: 2
Скачали: 0
Здоровье: 100%
Раздающих: 100%
Статус:
Скорость скачивания: 0 байт/сек
Скорость раздачи: 0 байт/сек
Последний сидер: 9 месяцев 5 дней 12 часов 24 минуты 56 секунд назад
Последний личер: 9 месяцев 5 дней 12 часов 24 минуты 56 секунд назад
Приватный: Нет (DHT включён)
Кулинария Скачать торрент
Скачать торрент
[ Размер 39.93 КБ / Просмотров 0 ]

Поделиться



Вернуться в Кулинария