Сообщение

Адские гостиницы / Hotel Hell / Сезон: 2 / Выпуск 1-8 (8) [2014 г.,Реалити-шоу, HDTVRip] RUS+ENG

Сообщение Stepan » 18 сен 2016, 23:36

Адские гостиницы 2 / Hotel Hеll 2
Страна: США
Тематика: кулинария
Тип раздаваемого материала: реалити-шоу
Продолжительность: ~ 00:40:00
Год выпуска: 2014
Язык: Русский
Перевод: Профессиональный (двухголосый)

Описание: Гордон Рамзи вновь пакует чемоданы, чтобы отправиться в турне по самым ужасающим отелям США во втором сезоне программы «Адские гостиницы». Более 10 лет Гордон возглавлял рестораны лучших отелей мира, поэтому он не понаслышке знает, как важно превзойти все ожидания клиентов. Прежде чем начать работать с владельцами и сотрудниками гостиниц, пришедших в упадок, Рамзи лично изучает все недостатки этих злополучных заведений - от грязи в номерах до плесени в ванных, от некомпетентности персонала до непрофессионального обслуживания клиентов. Гордон стремится сделать их конкурентоспособными в жесткой борьбе с другими предприятиями отельного бизнеса. Он буквально переворачивает все вверх дном, нагнетая напряжение, ссорясь с владельцами гостиниц и заставляя персонал работать на полную катушку. Владельцам, дорожащим репутацией своих отелей, придется понять одно - не достигнув высоких стандартов, предложенных Гордоном, они никогда не вырвутся из ранга "Адских гостиниц"!

Качество: HDTVRip
Формат: AVI
Видео кодек: XviD
Аудио кодек: MP3

Video: Xvid 720x400 ~1380 Kbps 23.976fps 0.20 bit/pixel
Audio1: MPEG Audio Layer 3 48000Hz stereo 128kbps[Rus]
Audio2: MPEG Audio Layer 3 48000Hz stereo 128kbps[Eng]
#7
Описание:

Шефа Рамзи сразу по прибытии в отель шокирует его бежевая расцветка и необходимость подписать отказ от нанесения ущерба отелю. Он задается вопросом, почему отель в Нью-Мексико косит под стиль Таскании в Италии. Еда отвратительна, а владелица распугивает посетителей своими песнями на караоке в стиле Шер, во время обслуживания. Бассейн грязный и не пригодный для купания. Владелица увольняет генерального директора. Рамзи и его команда обновляют все комнаты и приводят в порядок бассейн, а также создают новое меню, всё в стиле Нью-Мексико. Рамзи также просит владелицу прекратить распугивать посетителей своим пением и направить все свои усилия на управление гостиницей. Владелица принимает все изменения, видя как её бизнес на глазах начинает идти в гору.
#7
Описание:

В историческом здании отеля доступно всего 4 комнаты, если они заняты, то гостей селят в смежном здании мотеля. Владельцу отель достался по наследству, он богат, имеет раскошную коллекцию классических автомобилей. Однако, что касается своего отеля, он очень скуп. Сотрудники сообщают Рамзи, что владелец имеет проблемы с алкоголем и в связи с этим даже имел проблемы с законом. Рамзи наставляет владельца на истинный путь, а также обновляет комнаты и меню.
#7
Описание:

Рамзи поражен, что отель расположенный в таком живописном месте терпит убытки. Он обнаруживает, что два сына владелицы, управляющие развлекательной частью и рестораном отеля, не делятся доходами с ней. Многих гостей раздражает постоянный шум от ночных джем-сейшнов. Отец семейства устроил в своём сарайчике пыходром. Рамзи заставляет членов семьи помириться, а также обновляет комнаты и меню, а место для проведения шумных вечеринок переносит во двор.
#7
Описание:

5 лет назад владелец попал в автокатастрофу и с тех пор бизнес пошёл на спад. Его жена пыталась помочь, взяв на себя управление кухней, но ее еда не нашла отклика у местной молодёжи. У владельцев огромный долг и они живут в отеле. Рамзи обновляет комнаты, делает пивной садик, создаёт новое меню, а также нанимает новых поваров и снимает владельцам новое жильё.
#7
Описание:

Некогда историческим отелем управляют две сестры, Рина и Ванда, которые получили его как подарок от отца. Видя, что они абсолютно не справляются, Рамзи предлагает им продать отель или передать управление отелем главному управляющему. Сестры выбирают второй вариант. Рамзи со своей командой обновляют комнаты и создают новое меню. Он также посылает сестер в весьма необходимый отпуск.
#7
Описание:

Отель устарел, и ни одному из сотрудников не платят. Владелец не имея специального образования, пытается быть шеф-поваром. Рамзи обновляет комнаты и питомник для собак при отеле, переделывает меню и переименовывает отель. Владелец наконец покидает кухню и начинает исполнять свои обязанности владельца гостиницы, а также оплачивает зарплату сотрудникам.
#7
Описание:

Приехав в гостиницу, Рамзи узнаёт, что он единственный гость. В журнале регистрации записываются личные данные постояльцев: номера кредитных карт, адреса, телефоны и т.д. В гостинице обитает призрак. Владельцы Крис и его сестра ТиДжей не ладят. Их отношения друг к другу вызывают напряжение в пределах их семьи, а также среди сотрудников гостиницы. Рамзи примиряет владельцев, а также при помощи своей команды обновляет комнаты, меняет меню и вместо пресловутого журнала регистрации ставит компьютер.
#7
Описание:

Брайан Госс, Кевин Клерико и Джоэл Лэкитигнола - три друга в свои 30, они приобрели отель, но должным образом им не управляют, вместо этого зависая в баре отеля. Еда отвратительна, а кладовая забита испорченными продуктами. Кроме того, приемная отеля закрывается рано, и регистрироваться посетители должны в баре. Однако и это не всё, уже заселившееся постояльцы не могут нормально спать, из-за шума от вечеринок в баре. Госс назначает себя главным управляющим. Рамзи со своей командой обновили комнаты, добавили возможность онлайн регистрации в отеле, а также изменили меню, с учётом местной традиции дигустации вин.
C:\Documents and Settings\Admin\Мои документы\Downloads\HH2\Hotel.Hell_S2\Hotel.Hell_S2E01.avi
General
Complete name : C:\Documents and Settings\Admin\Мои документы\Downloads\HH2\Hotel.Hell_S2\Hotel.Hell_S2E01.avi
Format : AVI
Format/Info : Audio Video Interleave
File size : 503 MiB
Duration : 42mn 37s
Overall bit rate : 1 651 Kbps
Writing application : VirtualDubMod 1.5.10.3 (build 2550/release)
Writing library : VirtualDubMod build 2550/release
Video #0
ID : 0
Format : MPEG-4 Visual
Format profile : Advanced Simple@L5
Format settings, BVOP : 1
Format settings, QPel : No
Format settings, GMC : No warppoints
Format settings, Matrix : Default (MPEG)
Codec ID : XVID
Codec ID/Hint : XviD
Duration : 42mn 37s
Bit rate : 1 381 Kbps
Width : 720 pixels
Height : 400 pixels
Display aspect ratio : 16:9
Frame rate : 23.976 fps
Color space : YUV
Chroma subsampling : 4:2:0
Bit depth : 8 bits
Scan type : Progressive
Compression mode : Lossy
Bits/(Pixel*Frame) : 0.200
Stream size : 421 MiB (84%)
Writing library : XviD 1.2.0.dev47 (UTC 2006-11-01)
Audio #1
ID : 1
Format : MPEG Audio
Format version : Version 1
Format profile : Layer 3
Mode : Joint stereo
Mode extension : MS Stereo
Codec ID : 55
Codec ID/Hint : MP3
Duration : 42mn 37s
Bit rate mode : Constant
Bit rate : 128 Kbps
Channel(s) : 2 channels
Sampling rate : 48.0 KHz
Compression mode : Lossy
Stream size : 39.0 MiB (8%)
Alignment : Aligned on interleaves
Interleave, duration : 42 ms (1.00 video frame)
Interleave, preload duration : 504 ms
Title : Rus
Writing library : LAME3.98
Audio #2
ID : 2
Format : MPEG Audio
Format version : Version 1
Format profile : Layer 3
Mode : Joint stereo
Mode extension : MS Stereo
Codec ID : 55
Codec ID/Hint : MP3
Duration : 42mn 37s
Bit rate mode : Constant
Bit rate : 128 Kbps
Channel(s) : 2 channels
Sampling rate : 48.0 KHz
Compression mode : Lossy
Stream size : 39.0 MiB (8%)
Alignment : Aligned on interleaves
Interleave, duration : 42 ms (1.00 video frame)
Interleave, preload duration : 504 ms
Title : Eng

Постеры

Соцсети

 

Статистика

Автор: Stepan
Добавлен: 18 сен 2016, 23:36
Размер: 3.97 ГБ
Размер: 4 258 443 264 байт
Сидеров: 3
Личеров: 1
Скачали: 0
Здоровье: 100%
Раздающих: 100%
Статус:
Скорость скачивания: 0 байт/сек
Скорость раздачи: 0 байт/сек
Последний сидер: 7 месяцев 13 дней 17 часов 20 минут 48 секунд назад
Последний личер: 7 месяцев 13 дней 17 часов 20 минут 48 секунд назад
Приватный: Нет (DHT включён)
Кулинария Скачать торрент
Скачать торрент
[ Размер 20.67 КБ / Просмотров 0 ]

Поделиться



Вернуться в Кулинария