Смак / Ольга Шелест (эфир от 06.08.11) (1 канал) [2011, Кулинарно-развлекательное шоу, SATRip]

Рецепты салатов, закусок, мясных блюд, горячих напитков и сладких блюд
Торрент Сидеров Личеров Размер
torrent_3686255.torrent
2 1 347.81 МБ
Аватара пользователя
Stepan
Администратор
Сообщения: 52386
Зарегистрирован: 05 ноя 2011, 20:36

Смак / Ольга Шелест (эфир от 06.08.11) (1 канал) [2011, Кулинарно-развлекательное шоу, SATRip]

Сообщение Stepan » 18 сен 2016, 23:36

Смак/гость Ольга Шелест
Год выпуска: 2011
Страна: Россия
Жанр: Кулинарно-развлекательное шоу
Продолжительность: 00:29:41
Перевод: Не требуется
Русские субтитры: нет

Режиссер: 1 канал

Описание: Кулинарно-развлекательная программа "Смак" выходит в эфир с 1993 года. С 2006 года на телевизионной кухне гостей встречает Иван Ургант. Известные актеры, спортсмены, музыканты делятся с ним своими новостями и оригинальными рецептами приготовления блюд.

Доп. информация: Источник: SATRemux (сторонний ресурс)

Качество: SATRip
Формат: AVI
Видео кодек: XviD
Аудио кодек: MP3
Видео: XVID, 704*400, 1 500 Kbps, 16:9, 25.000 fps
Аудио: MP3, 128 Kbps, 44.1 KHz, 2 channels
General
Complete name : J:\Доугое\смак_06_08.avi
Format : AVI
Format/Info : Audio Video Interleave
File size : 348 MiB
Duration : 29mn 41s
Overall bit rate : 1 638 Kbps
Writing application : VirtualDubMod 1.5.10.2 (build 2540/release)
Writing library : VirtualDubMod build 2540/release

Video
ID : 0
Format : MPEG-4 Visual
Format profile : Advanced Simple@L5
Format settings, BVOP : No
Format settings, QPel : No
Format settings, GMC : No warppoints
Format settings, Matrix : Default (MPEG)
Codec ID : XVID
Codec ID/Hint : XviD
Duration : 29mn 41s
Bit rate : 1 500 Kbps
Width : 704 pixels
Height : 400 pixels
Display aspect ratio : 16:9
Frame rate : 25.000 fps
Color space : YUV
Chroma subsampling : 4:2:0
Bit depth : 8 bits
Scan type : Progressive
Compression mode : Lossy
Bits/(Pixel*Frame) : 0.213
Stream size : 319 MiB (92%)
Writing library : XviD 1.2.0.dev47 (UTC 2006-11-01)

Audio
ID : 1
Format : MPEG Audio
Format version : Version 1
Format profile : Layer 3
Codec ID : 55
Codec ID/Hint : MP3
Duration : 29mn 41s
Bit rate mode : Constant
Bit rate : 128 Kbps
Channel(s) : 2 channels
Sampling rate : 44.1 KHz
Compression mode : Lossy
Stream size : 27.2 MiB (8%)
Alignment : Split accross interleaves
Interleave, duration : 40 ms (1.00 video frame)
Interleave, preload duration : 500 ms
У вас нет необходимых прав для просмотра вложений в этом сообщении.