Сообщение

Смак - Наташа Королева (эфир от 2012.01.02) [2011, Кулинарное шоу, SATRip] (Видеоурок)

Сообщение Stepan » 18 сен 2016, 23:36

Смак - Наташа Королева (эфир от 2012.01.02)

Год выпуска: 2011
Страна: Россия
Выпущено: Россия / 1 канал
Жанр: Кулинарное шоу
Продолжительность: 00:29:13
Перевод: Не требуется

Режиссер: Павел Судаков

Режиссер: Продюсерский центр "Наш взгляд"

Ведущий: Иван Ургант

Гость программы: Наташа Королева

Описание: "Смак" - eженедельная развлекательно-кулинарная программа. На телевизионной кухне ведущий встречает гостей и вместе с ними готовит блюда по их рецептам. Кулинарно-развлекательная программа "Смак" выходит в эфир с 1993 года. На протяжении многих лет ее бессменным ведущим был Андрей Макаревич. Последние 2 года на телевизионной кухне гостей встречает Иван Ургант. Известные актеры, спортсмены, музыканты делятся с ним своими новостями и оригинальными рецептами приготовления блюд. А зрители с удовольствием наблюдают за процессом создания кулинарных шедевров и смеются над шутками ведущего Ивана Урганта. "Смак" - самая известная, популярная и долговременная программа о кулинарии, хотя в действительности главное в программе - общение. Иван Ургант, сохранив обаяние прогрммы, внес в нее юмор и непосредственность. Заставка программы на первый взгляд мало связана с темой передачи - малярная кисть, ведро с краской, рисование названия решительными мазками, казалось бы действие больше подходит для строительной тематики. Но в действительности, главное в заставке - динамика и яркость, зрелищность. А еще для многих зрителей ассоциативная связь красного цвета с кетчупом или томатным соусом.

Дополнительно: Этим утром для телезрителей и своих поклонников Наташа приготовит праздничный обед из любимых в ее семье блюд – курицы в маринаде, салата с тунцом и гренок со шпротами.
В процессе приготовления Наташа расскажет о том, как встречают Новый год в ее семье, о том, как она поздравляет своих соседей, и о необычном подарке, который подарил ей муж.


Качество : SATRip
Формат: AVI
Видео кодек: XviD
Аудио кодек: MP3
Видео: 704x400 (1.76:1), 25 fps, XviD MPEG-4 ~1544 kbps avg, 0.22 bit/pixel
Аудио: 48 kHz, MPEG Layer 3, 2 ch, ~128.00 kbps avg
Общее
Полное имя : E:\Downloads\55\Smak.Natasha.Koroleva.(2012.01.02).XviD.SATRip.avi
Формат : AVI
Формат/Информация : Audio Video Interleave
Размер файла : 353 Мбайт
Продолжительность : 29 м.
Общий поток : 1683 Кбит/сек
Программа кодирования : VirtualDubMod 1.5.10.2 (build 2540/release)
Библиотека кодирования : VirtualDubMod build 2540/release

Видео
Идентификатор : 0
Формат : MPEG-4 Visual
Профиль формата : Advanced Simple@L5
Параметр BVOP формата : 2
Параметр QPel формата : Да
Параметр GMC формата : Без точки перехода
Параметр матрицы формата : Default (H.263)
Режим смешивания : Сжатый битовый поток
Идентификатор кодека : XVID
Идентификатор кодека/Подсказка : XviD
Продолжительность : 29 м.
Битрейт : 1545 Кбит/сек
Ширина : 704 пикс.
Высота : 400 пикс.
Соотношение сторон : 16:9
Частота кадров : 25,000 кадр/сек
Цветовое пространство : YUV
Подвыборка цветности : 4:2:0
Битовая глубина : 8 бит
Тип развёртки : Чересстрочная
Порядок развёртки : Нижнее поле первое
Метод сжатия : С потерями
Бит/(Пиксели*Кадры) : 0.219
Размер потока : 324 Мбайт (92%)
Библиотека кодирования : XviD 64

Аудио
Идентификатор : 1
Формат : MPEG Audio
Версия формата : Version 1
Профиль формата : Layer 3
Режим : Joint stereo
Идентификатор кодека : 55
Идентификатор кодека/Подсказка : MP3
Продолжительность : 29 м.
Вид битрейта : Постоянный
Битрейт : 128 Кбит/сек
Каналы : 2 канала
Частота : 48,0 КГц
Метод сжатия : С потерями
Размер потока : 26,9 Мбайт (8%)
Выравнивание : Разделение по промежуткам
Продолжительность промежутка : 40 мс. (1,00 видеокадр)
Время предзагрузки промежутка : 500 ms
Раздача группы:

Релиз: ZaknA

Постеры

Соцсети

 

Статистика

Автор: Stepan
Добавлен: 18 сен 2016, 23:36
Размер: 353.12 МБ
Размер: 370 276 352 байт
Сидеров: 2
Личеров: 1
Скачали: 0
Здоровье: 100%
Раздающих: 100%
Статус:
Скорость скачивания: 0 байт/сек
Скорость раздачи: 0 байт/сек
Последний сидер: 8 месяцев 11 дней 8 часов 19 минут 12 секунд назад
Последний личер: 8 месяцев 11 дней 8 часов 19 минут 12 секунд назад
Приватный: Нет (DHT включён)
Кулинария Скачать торрент
Скачать торрент
[ Размер 14.27 КБ / Просмотров 0 ]

Поделиться



Вернуться в Кулинария