Смак (57 выпуск) / 2015 -2016 [2015-2016, Кулинарное шоу, HDTVRip (720p) , RUS] Добавлен 57 выпуск (Видеоурок)

Рецепты салатов, закусок, мясных блюд, горячих напитков и сладких блюд
Торрент Сидеров Личеров Размер
torrent_5158697.torrent
1 0 32.99 ГБ
Аватара пользователя
Stepan
Администратор
Сообщения: 51624
Зарегистрирован: 05 ноя 2011, 20:36

Смак (57 выпуск) / 2015 -2016 [2015-2016, Кулинарное шоу, HDTVRip (720p) , RUS] Добавлен 57 выпуск (Видеоурок)

Сообщение Stepan » 18 сен 2016, 23:36

Смак (57 выпуск) / 2015 -2016 / HDTVRip (720p) Добавлен 57 выпуск

Страна: Россия, Наш взгляд
Тематика: Кулинарное шоу
Тип раздаваемого материала: Видеоурок
Продолжительность: ~ 00:29:00
Год выпуска: 2015-2016

Язык: Русский
Перевод: Не требуется

Описание: Кулинарно-развлекательная программа "Смак" выходит в эфир с 1993 года. На протяжении многих лет ее бессменным ведущим был Андрей Макаревич. С 2006 года на телевизионной кухне гостей встречает Иван Ургант. Известные актеры, спортсмены, музыканты делятся с ним своими новостями и оригинальными рецептами приготовления блюд. А зрители с удовольствием наблюдают за процессом создания кулинарных шедевров и смеются над шутками ведущего Ивана Урганта.

Релиз:
Tarjaa


Содержание:
2015.03.04-Ростислав Хаит : мясной рулет с гарниром из грибов, проросшего нута, перца и помидоров.
2015.03.21-Юрий Николаев : говяжья печень с луком
2015.03.28-Наташа Королева : курица с курагой и черносливом и клубничный смузи с пломбиром
2015.04.04-Юлия Пересильд : необычный борщ – с грушей и черносливом.
2015.04.11-Роман Карцев : сайру и овощной салат.
2015.04.18-Ефим Шифрин : суп-пюре из тыквы "Кум Тыква", запеканку из творога и манки "Манка-запеканка" и маринованные гребешки "Золотой гребешок".
2015.04.25-Агния Кузнецова: тар-тара из говядины на картофельных вафлях
2015.05.11-Элина Быстрицкая : жареная куриная печень и куриное филе со сливками и карри.
2015.05.16-Алексей Кравченко : мясо со сливочно-грибным соусом.
2015.05.16-Алиса Гребенщикова : картофельная запеканка и куриная грудка на гриле
2015.05.30-Александра Захарова : жареная картошка и мороженое с орехами и шоколадом.
2015.06.06-Владимир Винокур : летний суп гаспачо и тосты из чиабатты с соусом "Песто".
2015.06.13-Екатерина Андреева : запеченый сибас с зеленью и хлеб из шпината.
2015.06.20-Александр Васильев : петух в вине и томленые груши.
2015.06.27-Екатерина Варнава : салат из киноа и нута и суп из авокадо и огурцов.
2015.07.04-Алёна Бабенко : запеченая ледяная рыба и летний салат.
2015.07.14-Игорь Угольников : вегетарианский борщ и горячая закуска из грибов и сыра.
2015.07.18-Екатерина и Александр Стриженовы : шашлык из бараньей печени по рецепту Леонида Якубовича, а на десерт – лимонный пирог с мороженым.
2015.07.25-Светлана Устинова : ризотто с грибами
2015.08.01-Леонид Якубович: «Похмельная говядина»
2015.08.08-Надежда Бабкина: летний суп из йогурта и лепешки из творога
2015.08.15-Александр Панкратов-Черный: говяжьи ребра с соусом и молодой картофель
2015.08.22-Алексей Маклаков: мисо суп и свиные ушки с орехами кешью
2015.08.29-Андрей Соколов: оригинальный салат «А-ля Островский»
2015.09.05-Елена Проклова: летние блюда с арбузом – салат и смузи
2015.09.12-Мария Порошина: салат с курицей и ананасом , шоколадный брауни с арахисовой пастой
2015.09.19-Мария Кожевникова: крабовый салат по семейному рецепту и куриную грудку
2015.09.26-Арина Шарапова: фаршированный перец и корейское блюдо «Битые огурцы»
2015.10.03-Тиль Швайгер: спагетти "Болоньезе" по семейному рецепту
2015.10.10-Сергей Степанченко: ризотто с рыбой и креветками
2015.10.17-Натали: пончики с вишневым вареньем
2015.10.24-Юлий Гусман: аджапсандал и баранья нога, запеченная с чесноком, розмарином и аджикой
2015.10.31-Елена Яковлева: севиче из палтуса с бататом
2015.11.14-Паулина Андреева: сырники с вареньем из фейхоа
2015.11.21-Анита Цой: цыпленок с картофелем, лимоном и маслинами
2015.11.28-Александр Цекало: пирог с пореем, пирог с фетой и моцареллой и салат "Панацелла"
2015.12.05-Певица Ёлка: вегетарианское блюдо – перлотто с белыми грибами
2015.12.12-Алексей Макаров: холостяцкий обед из баранины, тушенной с овощами
2015.12.19-Николай Валуев: голубцы из мяса лося и кабана
2015.12.26-Ингеборга Дапкунайте: уха и кресс-салат с овощами и жареной утиной грудкой
2016.01.16-Марина Александрова: запеченная рыба в листьях лука-порея и салат с рисом
2016.01.23-Евгений Князев: кулебякa с рыбой и грибами
2016.01.30-Александр Ревва: севиче из сибаса и салат с киноа
2016.02.06-Дмитрий Дибров: лапша удон с грибами и морепродуктами в воке
2016.02.13-Евгений Дятлов: запеченая рыба с цитрусами и салат из кольраби
2016.02.21-Лариса Рубальская: зимняя похлебка с пшеном
2016.02.27-Леонид Ярмольник: рыбный бургер - по рецепту своей жены Ксении
2016.03.05-Максим Галкин: полезный суп «Ешь и худей», салат с креветками и десерт с клубникой
2016.03.12-Анна Семенович: курица с каперсами в горчичном соусе, гречка с тимьяном и полезный зеленый салат
2016.03.19-Евгений Стычкин: капоната на брускетте
2016.03.26-Пелагея: кюкю и бутерброды с творогом и зеленью
2016.04.09-Александр Розенбаум: блюда среднеазиатской кухни
2016.04.16-Роза Сябитова: курник
2016.04.23-Сергей Жигунов: тушеный дикий гусь и салат с маринованными груздями
2016.04.30-Николай Добрынин: овощное соте и рыбную запеканку
2016.05.07-Светлана Дружинина: индейка в сметанном соусе и овощной салат
2016.05.14-Семен Слепаков: картофельные драники, ванильное мороженое
MediaInfo:
General
Unique ID : 224637052351394751398692792068192828866 (0xA8FF85C76CF5419ABDD060305EAF7DC2)
Complete name : Смак.2015.06.06.Владимир Винокур_HDTVRip720p.Tarjaa.mkv
Format : Matroska
Format version : Version 2
File size : 598 MiB
Duration : 29mn 55s
Overall bit rate : 2 794 Kbps
Encoded date : UTC 2015-07-22 20:24:23
Writing application : mkvmerge v4.9.1 ('Ich will') built on Aug 10 2011 09:31:20
Writing library : libebml v1.2.1 + libmatroska v1.2.0

Video
ID : 1
Format : AVC
Format/Info : Advanced Video Codec
Format profile : High@L3.1
Format settings, CABAC : Yes
Format settings, ReFrames : 4 frames
Codec ID : V_MPEG4/ISO/AVC
Duration : 29mn 55s
Bit rate : 2 600 Kbps
Width : 1 280 pixels
Height : 720 pixels
Display aspect ratio : 16:9
Frame rate mode : Constant
Frame rate : 25.000 fps
Color space : YUV
Chroma subsampling : 4:2:0
Bit depth : 8 bits
Scan type : Progressive
Bits/(Pixel*Frame) : 0.113
Stream size : 545 MiB (91%)
Writing library : x264 core 116 r2074 2641b9e
Encoding settings : cabac=1 / ref=3 / deblock=1:0:0 / analyse=0x3:0x113 / me=hex / subme=7 / psy=1 / psy_rd=1.00:0.00 / mixed_ref=1 / me_range=16 / chroma_me=1 / trellis=1 / 8x8dct=1 / cqm=0 / deadzone=21,11 / fast_pskip=1 / chroma_qp_offset=-2 / threads=6 / sliced_threads=0 / nr=0 / decimate=1 / interlaced=0 / bluray_compat=0 / constrained_intra=0 / bframes=3 / b_pyramid=2 / b_adapt=1 / b_bias=0 / direct=3 / weightb=1 / open_gop=0 / weightp=2 / keyint=250 / keyint_min=25 / scenecut=40 / intra_refresh=0 / rc_lookahead=40 / rc=2pass / mbtree=1 / bitrate=2600 / ratetol=1.0 / qcomp=0.60 / qpmin=0 / qpmax=69 / qpstep=4 / cplxblur=20.0 / qblur=0.5 / ip_ratio=1.40 / aq=1:1.00
Default : Yes
Forced : No

Audio
ID : 2
Format : AC-3
Format/Info : Audio Coding 3
Mode extension : CM (complete main)
Format settings, Endianness : Big
Codec ID : A_AC3
Duration : 29mn 55s
Bit rate mode : Constant
Bit rate : 192 Kbps
Channel(s) : 2 channels
Channel positions : Front: L R
Sampling rate : 48.0 KHz
Bit depth : 16 bits
Compression mode : Lossy
Stream size : 41.1 MiB (7%)
Default : Yes
Forced : No
Качество: HDTVRip (720p)
Формат: MKV
Видео кодек: H.264
Аудио кодек: AC3
Видео: MPEG4 Video (H264) 1280x720 25fps [Video 0 (lang:und)]
Аудио: Dolby AC3 48000Hz stereo [Audio 0 (lang:und)]

У вас нет необходимых прав для просмотра вложений в этом сообщении.