Кит Флойд. Избранное (37 серия из 37) / Floyd Keith / 1992 - 2001 [1992 - 2001, ТВ-шоу, кулинария, SATRip, RUS] (Видеоур

Рецепты салатов, закусок, мясных блюд, горячих напитков и сладких блюд
Торрент Сидеров Личеров Размер
torrent_4695613.torrent
3 1 12.51 ГБ
Аватара пользователя
Stepan
Администратор
Сообщения: 52270
Зарегистрирован: 05 ноя 2011, 20:36

Кит Флойд. Избранное (37 серия из 37) / Floyd Keith / 1992 - 2001 [1992 - 2001, ТВ-шоу, кулинария, SATRip, RUS] (Видеоур

Сообщение Stepan » 18 сен 2016, 23:38

Кит Флойд. Избранное (37 серия из 37) / Floyd Keith / 1992 - 2001

Страна: Великобритания, Lifetime Broadcast Ltd
Тематика: ТВ-шоу, кулинария
Тип раздаваемого материала: Видеоурок
Продолжительность: 37 x ~ 00:29:40
Год выпуска: 1992 - 2001

Язык: Русский
Перевод: Профессиональный (одноголосый)

Описание: В Италии Флойд посетит музей шоколада, увидит как делается знаменитая пармская ветчина и сварит классический итальянский рыбный суп. Затем он отправится в Испанию, примет участие в празднике поваров, изучит вкусы испанской аристократии и приготовит тунца по-баскски. В Норвегии Флойд попробует вафли с лососем и приготовит национальное блюдо из оленины с морошкой, в Гренландии ловит угря и запекает куропаток, а в Швеции путешествует по озерам и ловит раков с местными жителями, чтобы потом приготовить их в пиве. Далее путь Флойда лежит в Азию. Он изучает местные плавучие рынки, учится готовить блюда из змеи и побегов бамбука, оказывается в деревнях, на роскошных яхтах и на кухнях ресторанов Вьетнама, Гонконга, Малайзии и Бангкога.

Релиз:
Tarjaa

Содержание:
Флойд в Испании / Floyd on Spain 1992 г.
01.Флойд в Испании. Андалусия. / Andalucia
02.Флойд в Испании. Каталония. / Catalonia
03.Флойд в Испании. Коста-Бланка. / Costa Blanca
04.Флойд в Испании. Галисия. / Galicia
05.Флойд в Испании. Ла Манча, Мадрид. / La Mancha & Madrid
06.Флойд в Испании. Балеарские острова. / The Balearic Islands
07.Флойд в Испании. Страна Басков. / The Basque Country
Флойд и восточная кухня / Far Flung Floyd 1993 г.
01.Флойд и восточная кухня. Вьетнам. / Vietnam
02.Флойд и восточная кухня. Бангкок. / Bangkok
03.Флойд и восточная кухня. Северный Таиланд. / North Thailand
04.Флойд и восточная кухня. Остров Самуи, Таиланд. / Koh Samui, Thailand
05.Флойд и восточная кухня. Западная Малайзия. / West Malaysia
06.Флойд и восточная кухня. Восточная Малайзия. / East Malaysia
07.Флойд и восточная кухня. Гонконг. / Hong Kong
Флойд в Италии / Floyd On Italy 1994 г.
01.Флойд в Италии. Лигурия и Пьемонт. / Liguria and Piedmont
02.Флойд в Италии. Эмилия, Романья и Венеция. / Emilia Romagna and Venice
03.Флойд в Италии. Тоскана. / Tuscany
04.Флойд в Италии. Умбрия. / Umbria
05.Флойд в Италии. Апулия. / Puglia
06.Флойд в Италии. Калабрия. / Calabria
07.Флойд в Италии. Сицилия. / Sicily
Флойд и северная кухня / Floyd's Fjord Fiesta 2001 г.
01.Норвегия./ Norway
02.Норвегия./ Norway
03.Гренландия./ Greenland
04.Дания./ Denmark
05. Норвегия и Южная Швеция./ Norway and Sweden
06. Швеция./ Sweden
07.Норвегия/ Norway
Флойд в Средиземноморье / Floyd Around the Med 2000
01.Континентальная Греция / Greece : Part 1
02.Островная Греция / Greece : Part 2
03.Турция / Turkey
04.Франция, Монако / France
05.Испания, 1 ч / Spain : Part 1
06.Испания, 2 ч / Spain : Part 2
07.Тунис / Tunisia and Morocco
08.Египет, 1 ч / Egypt : Part 1
09.Египет, 2 ч / Egypt : Part 2
MediaInfo:
General
Complete name : Floyd Keith\Floyd on Spain_Tarjaa\Floyd on Spain.v.01.Andalucia_Tarjaa.avi
Format : AVI
Format/Info : Audio Video Interleave
File size : 376 MiB
Duration : 29mn 24s
Overall bit rate : 1 788 Kbps
Writing application : VirtualDubMod 1.5.10.3 | www.virtualdub-fr.org || (build 2550/release)
Writing library : VirtualDubMod build 2550/release

Video
ID : 0
Format : MPEG-4 Visual
Format profile : Advanced Simple@L5
Format settings, BVOP : 1
Format settings, QPel : No
Format settings, GMC : No warppoints
Format settings, Matrix : Default (H.263)
Codec ID : XVID
Codec ID/Hint : XviD
Duration : 29mn 24s
Bit rate : 1 650 Kbps
Width : 704 pixels
Height : 528 pixels
Display aspect ratio : 4:3
Frame rate : 25.000 fps
Color space : YUV
Chroma subsampling : 4:2:0
Bit depth : 8 bits
Scan type : Progressive
Compression mode : Lossy
Bits/(Pixel*Frame) : 0.178
Stream size : 347 MiB (92%)
Writing library : XviD 1.2.1 (UTC 2008-12-04)

Audio
ID : 1
Format : MPEG Audio
Format version : Version 1
Format profile : Layer 3
Codec ID : 55
Codec ID/Hint : MP3
Duration : 29mn 24s
Bit rate mode : Constant
Bit rate : 128 Kbps
Channel count : 2 channels
Sampling rate : 48.0 KHz
Compression mode : Lossy
Stream size : 26.9 MiB (7%)
Alignment : Aligned on interleaves
Interleave, duration : 40 ms (1.00 video frame)
Interleave, preload duration : 504 ms
Writing library : LAME3.98r
Encoding settings : -m s -V 4 -q 2 -lowpass 17 -b 128

General
Complete name : Floyd Keith\Floyd On Italy_Tarjaa\Floyd On Italy.v.02.Emilia Romagna and Venice_Tarjaa.avi
Format : AVI
Format/Info : Audio Video Interleave
File size : 360 MiB
Duration : 28mn 55s
Overall bit rate : 1 738 Kbps
Writing application : VirtualDubMod 1.5.10.3 | www.virtualdub-fr.org || (build 2550/release)
Writing library : VirtualDubMod build 2550/release

Video
ID : 0
Format : MPEG-4 Visual
Format profile : Advanced Simple@L5
Format settings, BVOP : 1
Format settings, QPel : No
Format settings, GMC : No warppoints
Format settings, Matrix : Default (H.263)
Codec ID : XVID
Codec ID/Hint : XviD
Duration : 28mn 55s
Bit rate : 1 600 Kbps
Width : 720 pixels
Height : 544 pixels
Display aspect ratio : 4:3
Frame rate : 25.000 fps
Color space : YUV
Chroma subsampling : 4:2:0
Bit depth : 8 bits
Scan type : Progressive
Compression mode : Lossy
Bits/(Pixel*Frame) : 0.163
Stream size : 331 MiB (92%)
Writing library : XviD 1.2.1 (UTC 2008-12-04)

Audio
ID : 1
Format : MPEG Audio
Format version : Version 1
Format profile : Layer 3
Codec ID : 55
Codec ID/Hint : MP3
Duration : 28mn 55s
Bit rate mode : Constant
Bit rate : 128 Kbps
Channel count : 2 channels
Sampling rate : 48.0 KHz
Compression mode : Lossy
Stream size : 26.5 MiB (7%)
Alignment : Aligned on interleaves
Interleave, duration : 40 ms (1.00 video frame)
Interleave, preload duration : 504 ms
Writing library : LAME3.98r
Encoding settings : -m s -V 4 -q 2 -lowpass 17 -b 128
Качество: SATRip
Формат: AVI
Видео кодек: XviD
Аудио кодек: MP3
Видео: Xvid 704x528 25.00fps ~ 1650 Кбит/с
Xvid 720x544 25.00fps ~ 1600 Кбит/с
Аудио : MPEG Audio Layer 3 48000Hz stereo 128kbps [Stream 01]

Альтернативная раздача:
Добавлен: Флойд в Средиземноморье / Floyd Around the Med
перезалейте торрент
У вас нет необходимых прав для просмотра вложений в этом сообщении.