Семейное рождество Джейми / Jamie's Family Christmas [2009, Кулинарное шоу, DVB, RUS/ENG]

Рецепты салатов, закусок, мясных блюд, горячих напитков и сладких блюд
Торрент Сидеров Личеров Размер
torrent_4917175.torrent
1 0 3.23 ГБ
Аватара пользователя
Stepan
Администратор
Сообщения: 52267
Зарегистрирован: 05 ноя 2011, 20:36

Семейное рождество Джейми / Jamie's Family Christmas [2009, Кулинарное шоу, DVB, RUS/ENG]

Сообщение Stepan » 18 сен 2016, 23:39

Семейное рождество Джейми / Jamie's Family Christmas

Страна: Соединённое Королевство Великобритании и Северной Ирландии
Тематика: Кулинарное шоу
Тип раздаваемого материала: Видеоурок
Продолжительность: 00:23:56
Год выпуска: 2009

Язык: Русский + Английский
Перевод: Профессиональный (одноголосый)

Язык субтитров: нет
Описание: Кулинарное Рождественское шоу Джейми Оливера.
серии:
1. "Рождественская индейка" - ( запеченная индейка, начинка для индейки, соус, индейка чили)
2. "Завтрак, обед и поздний завтрак" - (блинчики, салат с карпаччо из говядины, окорок и яйца, жаркое из риса с рыбой и яйцами)
3. "Жареный картофель и овощи" - (жареный картофель, жареные овощи, брускетта, жаркое bubble-and-squeak)
4. "Праздничные десерты" - (праздничный штрудель, шоколадный мусс, мороженое, зимний пудинг, желе)
5. "Праздник" - (паштет из куриной печени, гранатовые шоты и сидр, зимний суп)

Качество: DVB
Формат: TS
Видео кодек: MPEG2
Аудио кодек: MP2
Видео: MPEG2 Video 720x576 (16:9) 25fps [V: mpeg2 main, yuv420p, 720x576]
Аудио: MPEG Audio 48000Hz stereo 192kbps [A: mp2, 48000 Hz, stereo, 192 kb/s]
Аудио 2: MPEG Audio 48000Hz stereo 192kbps [A: mp2, 48000 Hz, stereo, 192 kb/s]
Код:

Код: Выделить всё

General
ID                          : 16 (0x10)
Complete name               : E:\Jamie\Jamie's Family Christmas SD\Jamie.Family.Christmas.S01.E01.DVB.ts
Format                      : MPEG-TS
File size                   : 661 MiB
Duration                    : 23mn 43s
Overall bit rate mode       : Variable
Overall bit rate            : 3 896 Kbps

Video
ID                          : 41 (0x29)
Menu ID                     : 3 (0x3)
Format                      : MPEG Video
Format version              : Version 2
Format profile              : Main@Main
Format settings, BVOP       : Yes
Format settings, Matrix     : Custom
Format settings, GOP        : Variable
Format settings, picture st : Frame
Codec ID                    : 2
Duration                    : 23mn 44s
Bit rate mode               : Variable
Bit rate                    : 3 315 Kbps
Maximum bit rate            : 3 400 Kbps
Width                       : 720 pixels
Height                      : 576 pixels
Display aspect ratio        : 16:9
Frame rate                  : 25.000 fps
Standard                    : PAL
Color space                 : YUV
Chroma subsampling          : 4:2:0
Bit depth                   : 8 bits
Scan type                   : Interlaced
Scan order                  : Top Field First
Compression mode            : Lossy
Bits/(Pixel*Frame)          : 0.320
Time code of first frame    : 00:00:00:00
Time code source            : Group of pictures header
GOP, Open/Closed            : Open
Stream size                 : 563 MiB (85%)
Writing library             : (dvd5: Jun 16 2014)

Audio #1
ID                          : 44 (0x2C)
Menu ID                     : 3 (0x3)
Format                      : MPEG Audio
Format version              : Version 1
Format profile              : Layer 2
Codec ID                    : 3
Duration                    : 23mn 43s
Bit rate mode               : Constant
Bit rate                    : 192 Kbps
Channel(s)                  : 2 channels
Sampling rate               : 48.0 KHz
Compression mode            : Lossy
Stream size                 : 32.6 MiB (5%)

Audio #2
ID                          : 45 (0x2D)
Menu ID                     : 3 (0x3)
Format                      : MPEG Audio
Format version              : Version 1
Format profile              : Layer 2
Codec ID                    : 3
Duration                    : 23mn 43s
Bit rate mode               : Constant
Bit rate                    : 192 Kbps
Channel(s)                  : 2 channels
Sampling rate               : 48.0 KHz
Compression mode            : Lossy
Stream size                 : 32.6 MiB (5%)




У вас нет необходимых прав для просмотра вложений в этом сообщении.