Сообщение

Птица. От филе до фарша (64 выпуска) [2014-2015, Кулинарное шоу, WEB-DL, 720p, RUS] [2014-2015, Кулинария, RUS] (Видеоурок)

Сообщение Stepan » 18 сен 2016, 23:41

Птица. От филе до фарша

Год выпуска: 2014-2015
Страна: Россия
Тематика: Кулинария
Тип раздаваемого материала: Видеоурок
Продолжительность: 15-33 минуты на выпуск
Перевод: Не требуется

Описание: В каждом выпуске программы Сергей Малаховский
будет готовить птицу и каждый раз по новому авторскому рецепту!
Думаете мясо вкуснее? Может быть, вы просто не знаете,
насколько велико разнообразие блюд, которые можно приготовить
из курицы, индейки, утки, гуся и прочих пернатых?
Стоит попробовать.

Качество: WEB-DL
Формат: MP4
Видео кодек: AVC
Аудио кодек: AAC
Видео: 1280x720 25.00fps, ~2500 Kbit/sec
Аудио: Russian: AAC, 192 kb/s (2 ch)
Ариса из утки с пшеничкой
Биточки из куриных желудков с острым картофелем
Битый гусь с тушеной капустой
Бифштекс из индейки с вареной сгущенкой с оранжевым рисом
Галантин с орехами пекан в винном соусе
Глухарь томленый с соусом на яблочной шарлотке
Гречневый суп с потрошками на курином бульоне
Гуляш из индейки в кукурузном соусе
Гусь в свиной сетке с рисовыми крокетами
Гусь с фруктами и вишневым соусом
Гусь с чесночной лапшой
Дьявольские утиные окорочка с кукурузным хлебом
Жаркое из индейки с изюмом
Жаркое из курицы с овощами
«Желтая шляпа» с сюрпризом из утиного фарша со сливочно-мускатным соусом
Запеченная утка с медовой корочкой
Индейка в соусе «пьяная вишня» с теплым салатом
Индейка с вялеными баклажанами и ореховым соусом
Индейка с фруктами и овощами в сладком соусе
Индюшачий окорок с тархуновым соусом
Индюшачьи сердечки с тыквенным жюльеном
Калья из гуся с блинчиками на старорусский манер
Копченая утка с яблочным суфле
Котлета кордон блю из индейки на свекольном ризотто
Крученики из индейки с картофелем
Куриное филе с огненным виноградом
Куриные котлетки с креветками с соусом субиз и полентой
Куриные котлеты с картофельным соусом
Куриные крылышки в оригинальной панировке
Куриные нити со стеклянной лапшой и грибами
Куриные окорочка в виноградных листьях
Куриные рулетики с можжевеловым соусом
Куриные сердечки в томатно-сливочном соусе
Куриный суп с лапшой и овощами
Куриный шницель с рисовым драником
Курица на банке с соусом из фиников
Кусочки гусятины в ореховом соусе
Люля-кебаб с аджикой и картофельной соломкой
Охотничьи котлетки из глухаря с тёплым сырным салатом
Печёночные оладьи с сельдереем
Пирог с курицей и уткой под сырной корочкой
Пирожки посекунчики из куриных окорочков и телятины
Пицца с индейкой и белыми грибами со свежим салатом
«Попкорн» из куриного фарша с соусом терияки
Пряная индейка с виноградным ризотто
Равиоли с уткой и сырным соусом
Рагу из гуся, курицы и индейки, запеченное в тыкве
Ромштекс из утки с соленьями и острым соусом
Рулет из утиных окорочков с фасолью и орехами
Рулет из утки с грушей и ореховым соусом
Рулетики из курицы в горчичном соусе
Тартар из утки с персиками
Томленый в собственном жиру гусь
Утиная ножка с фиолетовой коврижкой
Утиное филе с банановым ризотто
Утиное филе с персиками и картошкой
Утиные котлеты с красным пюре
Утиный паштет с соусом из каперсов
Утка с инжиром и кукурузным гарниром
Фантазия на тему чили с индейкой и курицей
Филе куриное в чесночном соусе на манер лазаньи
«Хлеб» из курицы и индейки с зеленым горошком
Хрустящий цыплёнок с васаби и жареными огурцами
Хрустящий цыплёнок с зелёной аджикой
General
Format : MPEG-4
Format profile : Base Media / Version 2
Codec ID : mp42
File size : 402 MiB
Duration : 23mn 35s
Overall bit rate mode : Variable
Overall bit rate : 2 383 Kbps
Encoded date : UTC 2015-01-05 15:55:36
Tagged date : UTC 2015-01-05 15:55:36
gsst : 0
gstd : 1416068
gssd : BADC292A2HM1436296205257534
gshh : r2---sn-n8v7znes.googlevideo.com

Video
ID : 1
Format : AVC
Format/Info : Advanced Video Codec
Format profile : High@L3.1
Format settings, CABAC : Yes
Format settings, ReFrames : 1 frame
Format settings, GOP : M=1, N=60
Codec ID : avc1
Codec ID/Info : Advanced Video Coding
Duration : 23mn 35s
Bit rate : 2 189 Kbps
Maximum bit rate : 5 611 Kbps
Width : 1 280 pixels
Height : 720 pixels
Display aspect ratio : 16:9
Frame rate mode : Constant
Frame rate : 25.000 fps
Color space : YUV
Chroma subsampling : 4:2:0
Bit depth : 8 bits
Scan type : Progressive
Bits/(Pixel*Frame) : 0.095
Stream size : 369 MiB (92%)
Tagged date : UTC 2015-01-05 15:56:04

Audio
ID : 2
Format : AAC
Format/Info : Advanced Audio Codec
Format profile : LC
Codec ID : 40
Duration : 23mn 35s
Bit rate mode : Variable
Bit rate : 192 Kbps
Maximum bit rate : 201 Kbps
Channel(s) : 2 channels
Channel positions : Front: L R
Sampling rate : 44.1 KHz
Compression mode : Lossy
Stream size : 32.4 MiB (8%)
Title : IsoMedia File Produced by Google, 5-11-2011
Encoded date : UTC 2015-01-05 15:55:53
Tagged date : UTC 2015-01-05 15:56:04
Раздача обновлена 23.11.2015
Добавлен выпуск «Куриные сердечки в томатно-сливочном соусе»

Тем, кто уже на раздаче, нужно скачать новый torrent-файл и перехешировать для добавления выпусков.

Постеры

Соцсети

 

Статистика

Автор: Stepan
Добавлен: 18 сен 2016, 23:41
Размер: 25.08 ГБ
Размер: 26 929 142 785 байт
Сидеров: 9
Личеров: 8
Скачали: 0
Здоровье: 100%
Раздающих: 100%
Статус:
Скорость скачивания: 0 байт/сек
Скорость раздачи: 0 байт/сек
Последний сидер: 7 месяцев 11 дней 5 часов 25 минут 59 секунд назад
Последний личер: 7 месяцев 11 дней 5 часов 25 минут 59 секунд назад
Приватный: Нет (DHT включён)
Кулинария Скачать торрент
Скачать торрент
[ Размер 132.72 КБ / Просмотров 1 ]

Поделиться



  • Похожие торренты
    Ответы
    Просмотры
    Последнее сообщение

Вернуться в Кулинария