Кошмары на кухне 06 / Kitchen Nightmares 06 / Серии: 1-16 из 16 [2012-2013, Кулинария, PDTVRip] VO (ViruseProject)

Рецепты салатов, закусок, мясных блюд, горячих напитков и сладких блюд
Торрент Сидеров Личеров Размер
torrent_4860917.torrent
7 2 9.77 ГБ
Аватара пользователя
Stepan
Администратор
Сообщения: 51624
Зарегистрирован: 05 ноя 2011, 20:36

Кошмары на кухне 06 / Kitchen Nightmares 06 / Серии: 1-16 из 16 [2012-2013, Кулинария, PDTVRip] VO (ViruseProject)

Сообщение Stepan » 18 сен 2016, 23:41

Кошмары на кухне 06 / Kitchen Nightmares 06

Год выпуска: 2012-2013
Страна: США
Тематика: Кулинария
Тип раздаваемого материала: Реалити-шоу
Продолжительность: 00:44:00

Язык: Русский
Перевод: Одноголосый, закадровый ViruseProject

Описание: Думаете, шеф Рамзи устал? Думаете, насытился ролью невыносимого, жестокого и страшного начальника? Ошибаетесь! Хорошо знакомый нам Гордон Рамзи возвращается с новым кулинарным боевиком «Кошмары на кухне». Одиозный шеф-повар посещает рестораны, которые находятся на грани финансового разорения и пытается за неделю определить, почему так вышло. Гордон исправит все ошибки и с помощью дизайнеров украсит интерьер. Итог — модный ресторан с качественной едой, реформированный самим Гордоном Рамзи.




Закадровое озвучание: Владислав Данилов
Перевод на русский: Константин Кривоногов
Сведение звука: viruse (Виталий Емельянов)
Озвучено при поддержке SEASONVAR
смотреть СЕМПЛ озвучки на youtube
скачать СЕМПЛ с multi-up

Качество: PDTVRip
Формат: AVI (1-7 серии)
Видео кодек: XviD
Аудио кодек: МР3
Видео: 720x400 (1.80:1), 23.975 fps, XviD build 50 ~1597 kbps avg, 0.23 bit/pixel
Аудио: 48 kHz, MPEG Layer 3, 2 ch, ~192.00 kbps avg

Формат: MKV (8-16 серии)
Видео: AVC, 960x532 (16:9), 23.975 fps, 2 525 Kbps, 8 bits
Аудио: 48 kHz, AAC, 2 ch, ~192.00 kbps avg
General
Complete name : E:\ОЗВУЧКА\ТЕЛЕПЕРЕДАЧИ\Kitchen.Nightmares.US.S06\Kitchen.Nightmares.US.S06.ViruseProject\Kitchen.Nightmares.US.S06E04.ViruseProject.avi
Format : AVI
Format/Info : Audio Video Interleave
File size : 562 MiB
Duration : 43mn 42s
Overall bit rate : 1 799 Kbps
Writing application : VirtualDubMod 1.5.10.2 (build 2540/release)
Writing library : VirtualDubMod build 2540/release

Video
ID : 0
Format : MPEG-4 Visual
Format profile : Advanced Simple@L5
Format settings, BVOP : 1
Format settings, QPel : No
Format settings, GMC : No warppoints
Format settings, Matrix : Default (MPEG)
Codec ID : XVID
Codec ID/Hint : XviD
Duration : 43mn 42s
Bit rate : 1 597 Kbps
Width : 720 pixels
Height : 400 pixels
Display aspect ratio : 16:9
Frame rate : 23.976 fps
Color space : YUV
Chroma subsampling : 4:2:0
Bit depth : 8 bits
Scan type : Progressive
Compression mode : Lossy
Bits/(Pixel*Frame) : 0.231
Stream size : 499 MiB (89%)
Writing library : XviD 1.2.1 (UTC 2008-12-04)

Audio
ID : 1
Format : MPEG Audio
Format version : Version 1
Format profile : Layer 3
Mode : Joint stereo
Mode extension : MS Stereo
Codec ID : 55
Codec ID/Hint : MP3
Duration : 43mn 42s
Bit rate mode : Constant
Bit rate : 192 Kbps
Channel(s) : 2 channels
Sampling rate : 48.0 KHz
Compression mode : Lossy
Stream size : 60.0 MiB (11%)
Alignment : Split accross interleaves
Interleave, duration : 42 ms (1.00 video frame)
Interleave, preload duration : 500 ms
General
Unique ID : 201972922916134660137923094293916490757 (0x97F291ECD3FDB5738FF5CF280A191C05)
Complete name : E:\ОЗВУЧКА\ТЕЛЕПЕРЕДАЧИ\Kitchen.Nightmares.US.S06\Kitchen.Nightmares.US.S06E11.ViruseProject.mkv
Format : Matroska
Format version : Version 4 / Version 2
File size : 790 MiB
Duration : 43mn 43s
Overall bit rate : 2 525 Kbps
Encoded date : UTC 2015-03-13 11:11:20
Writing application : mkvmerge v6.5.0 ('Isn't she lovely') built on Oct 20 2013 12:50:05
Writing library : libebml v1.3.0 + libmatroska v1.4.1

Video
ID : 1
Format : AVC
Format/Info : Advanced Video Codec
Format profile : High@L4.1
Format settings, CABAC : Yes
Format settings, ReFrames : 5 frames
Codec ID : V_MPEG4/ISO/AVC
Duration : 43mn 43s
Width : 960 pixels
Height : 532 pixels
Display aspect ratio : 16:9
Frame rate mode : Constant
Frame rate : 23.976 fps
Color space : YUV
Chroma subsampling : 4:2:0
Bit depth : 8 bits
Scan type : Progressive
Writing library : x264 core 129 r2245 bc13772
Encoding settings : cabac=1 / ref=5 / deblock=1:0:0 / analyse=0x3:0x113 / me=umh / subme=8 / psy=1 / psy_rd=1.00:0.00 / mixed_ref=1 / me_range=16 / chroma_me=1 / trellis=1 / 8x8dct=1 / cqm=0 / deadzone=21,11 / fast_pskip=0 / chroma_qp_offset=-2 / threads=18 / lookahead_threads=3 / sliced_threads=0 / nr=0 / decimate=1 / interlaced=0 / bluray_compat=0 / constrained_intra=0 / bframes=5 / b_pyramid=2 / b_adapt=2 / b_bias=0 / direct=3 / weightb=1 / open_gop=0 / weightp=2 / keyint=250 / keyint_min=23 / scenecut=40 / intra_refresh=0 / rc_lookahead=50 / rc=crf / mbtree=1 / crf=20.0 / qcomp=0.60 / qpmin=0 / qpmax=69 / qpstep=4 / ip_ratio=1.40 / aq=1:1.00
Language : English
Default : No
Forced : No

Audio
ID : 2
Format : AAC
Format/Info : Advanced Audio Codec
Format profile : LC
Codec ID : A_AAC
Duration : 43mn 43s
Channel(s) : 2 channels
Channel positions : Front: L R
Sampling rate : 48.0 KHz
Compression mode : Lossy
Title : Viruseproject
Language : Russian
Default : Yes
Forced : No
Внимание! Раздача ведётся путём добавления новых серий; при каждом добавлении создётся новый торрент. Чтобы начать докачку новой серии, пользователям необходимо сделать следующее:
Остановить скачивание.
Удалить старый торрент у себя из клиента (старые серии удалять не надо).
Скачать новый торрент и запустить его у себя в клиенте вместо старого, при этом указать клиенту путь в старую папку куда и должно происходить скачивание новых серий.
Ваш клиент при этом должен произвести хеширование (проверку) старой папки (если не производит сам - помогите ему сделать это), и будет докачивать только те серии которых у вас ещё нет. Старые серии при этом не удаляются, а продолжают раздаваться!
Eсли вы уже удалили старые серии, то предотвратить повторную закачку старых серий можно, отжав галочку в соответсвующих местах при запуске нового торрента. По возможности, желательно не удалять старые серии как можно дольше чтобы релизёр не столько продолжал раздавать старые серии, а смог сконцентрироваться на новых.
ВНИМАНИЕ! Добавлена 16 серия!
У вас нет необходимых прав для просмотра вложений в этом сообщении.