Сообщение

Обед безбрачия (Обновлен 13.01.13) [2012, Кулинария, Еда ТВ, DVB Remux, MPEG, 576p]

Сообщение Stepan » 18 сен 2016, 23:42

Обед безбрачия

Страна: Россия
Тематика: Кулинария
Тип раздаваемого материала: Видеоурок
Продолжительность: 00:27:00
Год выпуска: 2012

Язык: Русский
Перевод: Не требуется
Видео: AVC, 720x576, 16:9, 2 137 kbps, 25 fps
Аудио: MP2, 192 kbps, 48.0 kHz, 2 channels

Описание: Илья Лазерсон расскажет о тонкостях холостяцкой кухни.

Качество: DVB Remux
Формат: TS
Видео кодек: AVC
Аудио кодек: MP2

Автор рипа: SashaR.
Канал: Еда ТВ
Дополнительная информация по релизу: Собственный захват с канала Еда ТВ

Раздача в HD качестве (часть 1)

Раздача в HD качестве (часть 2)

Раздача в HD качестве (часть 3)
Макароны по флотски
Бефстроганов
Салат из курицы с ананасом
Винегрет с килькой
Минутный стейк
Лапшп по китайски
Жареные баклажаны в соусе по китайски
Довга
Плов
Окрошка
Омлет и горячий шоколад
Фаршированная рыба со свининой
Фондю из красной рыбы
Салат из кальмаров
Чесночный суп
Чахохбили
Кюфта
Блинчики с мясом
Лимонная курица
Суп Чеддер
Суп из чечевицы
Шаверма
Украинские вареники
Рыбные котлетки
Кулебяка
Азербайджанский плов
Яйца бенедикт
Жареная печёнка с гречневой кашей
Эмпанада
Хинкали
Салат Кобб
Рыбная запеканка
Щи
: F:\Обед безбрачия ( SD )\Макароны по флотски.ts
General #6
ID : 6 (0x6)
Complete name : F:\Обед безбрачия ( SD )\Макароны по флотски.ts
Format : MPEG-TS
File size : 495 MiB
Duration : 27mn 39s
Overall bit rate : 2 500 Kbps
Video #551
ID : 551 (0x227)
Menu ID : 311 (0x137)
Format : AVC
Format/Info : Advanced Video Codec
Format profile : Main@L3.0
Format settings, CABAC : Yes
Format settings, ReFrames : 4 frames
Codec ID : 27
Duration : 27mn 39s
Bit rate : 2 183 Kbps
Width : 720 pixels
Height : 576 pixels
Display aspect ratio : 16:9
Frame rate : 25.000 fps
Standard : Component
Color space : YUV
Chroma subsampling : 4:2:0
Bit depth : 8 bits
Scan type : Progressive
Bits/(Pixel*Frame) : 0.211
Stream size : 432 MiB (87%)
Color primaries : BT.470-6 System B, BT.470-6 System G, BT.601-6 625, BT.1358 625, BT.1700 625 PAL, BT.1700 625 SECAM
Transfer characteristics : BT.470-6 System B, BT.470-6 System G
Matrix coefficients : BT.470-6 System B, BT.470-6 System G, BT.601-6 625, BT.1358 625, BT.1700 625 PAL, BT.1700 625 SECAM, IEC 61966-2-4 601
Audio #552
ID : 552 (0x228)
Menu ID : 311 (0x137)
Format : MPEG Audio
Format version : Version 1
Format profile : Layer 2
Codec ID : 4
Duration : 27mn 39s
Bit rate mode : Constant
Bit rate : 192 Kbps
Channel(s) : 2 channels
Sampling rate : 48.0 KHz
Compression mode : Lossy
Delay relative to video : 378ms
Stream size : 38.0 MiB (8%)
Внимание! Раздача ведётся путём добавления новых серий телепередачи; при каждом добавлении создаётся новый торрент. Чтобы начать докачку новой серии, пользователям необходимо сделать следующее:
(1) остановить скачивание,
(2) удалить старый торрент у себя из клиента (старые серии удалять не надо),
(3) скачать новый торрент и запустить его у себя в клиенте вместо старого, при этом указать клиенту путь в старую папку куда и должно происходить скачивание новых серий.
Ваш клиент при этом должен произвести хеширование (проверку) старой папки (если не производит сам - помогите ему сделать это), и будет докачивать только те серии которых у вас ещё нет. Старые серии при этом не удаляются, а продолжают раздаваться!
Если вы уже удалили старые серии, то предотвратить повторную закачку старых серий можно, отжав галочку в соответсвующих местах при запуске нового торрента. По возможности, желательно не удалять старые серии как можно дольше чтобы релизёр не столько продолжал раздавать старые серии, а смог сконцентрироваться на новых.

Постеры

Соцсети

 

Статистика

Автор: Stepan
Добавлен: 18 сен 2016, 23:42
Размер: 28.28 ГБ
Размер: 30 369 359 448 байт
Сидеров: 2
Личеров: 1
Скачали: 0
Здоровье: 100%
Раздающих: 100%
Статус:
Скорость скачивания: 0 байт/сек
Скорость раздачи: 0 байт/сек
Последний сидер: 5 месяцев 10 дней 3 часа 58 минут 8 секунд назад
Последний личер: 5 месяцев 10 дней 3 часа 58 минут 8 секунд назад
Приватный: Нет (DHT включён)
Кулинария Скачать торрент
Скачать торрент
[ Размер 152.52 КБ / Просмотров 0 ]

Поделиться



Вернуться в Кулинария