Безумный Балаханов. Нюансы. (14 выпусков) [2013, Кулинарное шоу, WEB-DL, 720p, RUS] (Видеоурок)

Рецепты салатов, закусок, мясных блюд, горячих напитков и сладких блюд
Торрент Сидеров Личеров Размер
torrent_4822398.torrent
2 1 5.63 ГБ
Аватара пользователя
Stepan
Администратор
Сообщения: 52267
Зарегистрирован: 05 ноя 2011, 20:36

Безумный Балаханов. Нюансы. (14 выпусков) [2013, Кулинарное шоу, WEB-DL, 720p, RUS] (Видеоурок)

Сообщение Stepan » 18 сен 2016, 23:42

Безумный Балаханов. Нюансы

Год выпуска: 2013
Страна: Россия
Тематика: Кулинария
Тип раздаваемого материала: Видеоурок
Продолжительность: 18-30 минут на выпуск
Перевод: Не требуется

Описание: Шеф-повар, известный по проекту
«Кастрюля в ухе или Безумный Балаханов», начинает сольную карьеру!
Теперь он на кухне один, без всяких помех и отвлекающих маневров.
Он — сам себе голова!

Качество: WEB-DL
Формат: MP4
Видео кодек: AVC
Аудио кодек: AAC
Видео: 1280x720 25.00fps, ~2400 Kbit/sec
Аудио: Russian: AAC, 192 kb/s (2 ch)
Бигос
Говядина с помидорами и базиликом
Корюшка, маринованная в пиве с овощами
Куриная грудка под соусом из тунца
Куриная ножка, фаршированная грибами
Лосось с угрем холодного копчения, запеченный в тесте
Минестроне с грибами и колбасками чорисо
Мясо, томленное с черносливом
Рагу из утки с апельсинами и слоеные закуски
Сёмга, припущенная в белом вине
Салат из 5 видов Томатов и Помидор-гриль
Свиная вырезка, фаршированная оливками и чесноком
Солянка мясная с каперсами
Соте из курицы со сморчками
General
General
Format : MPEG-4
Format profile : Base Media / Version 2
Codec ID : mp42
File size : 420 MiB
Duration : 26mn 20s
Overall bit rate mode : Variable
Overall bit rate : 2 232 Kbps
Encoded date : UTC 2013-08-29 08:18:46
Tagged date : UTC 2013-08-29 08:18:46
gsst : 0
gstd : 1580093
gssd : B6DC28944HM1410457660553073
gshh : r1---sn-xguxaxjvh-2x1e.googlevideo.com

Video
ID : 1
Format : AVC
Format/Info : Advanced Video Codec
Format profile : High@L3.1
Format settings, CABAC : Yes
Format settings, ReFrames : 1 frame
Format settings, GOP : M=1, N=60
Codec ID : avc1
Codec ID/Info : Advanced Video Coding
Duration : 26mn 20s
Bit rate : 2 038 Kbps
Maximum bit rate : 4 049 Kbps
Width : 1 280 pixels
Height : 720 pixels
Display aspect ratio : 16:9
Frame rate mode : Constant
Frame rate : 25.000 fps
Color space : YUV
Chroma subsampling : 4:2:0
Bit depth : 8 bits
Scan type : Progressive
Bits/(Pixel*Frame) : 0.088
Stream size : 384 MiB (91%)
Tagged date : UTC 2013-08-29 08:20:02

Audio
ID : 2
Format : AAC
Format/Info : Advanced Audio Codec
Format profile : LC
Codec ID : 40
Duration : 26mn 20s
Bit rate mode : Variable
Bit rate : 192 Kbps
Maximum bit rate : 202 Kbps
Channel(s) : 2 channels
Channel positions : Front: L R
Sampling rate : 44.1 KHz
Compression mode : Lossy
Stream size : 36.2 MiB (9%)
Title : IsoMedia File Produced by Google, 5-11-2011
Encoded date : UTC 2013-08-29 08:19:29
Tagged date : UTC 2013-08-29 08:20:02
У вас нет необходимых прав для просмотра вложений в этом сообщении.