Великобритания Джейми (6 серии из 6) / Jamie's Great Britain [2011, Кулинарное шоу, PDTVRip, RUS] (Видеоурок)

Рецепты салатов, закусок, мясных блюд, горячих напитков и сладких блюд
Торрент Сидеров Личеров Размер
torrent_4698400.torrent
16 5 3.12 ГБ
Аватара пользователя
Stepan
Администратор
Сообщения: 52269
Зарегистрирован: 05 ноя 2011, 20:36

Великобритания Джейми (6 серии из 6) / Jamie's Great Britain [2011, Кулинарное шоу, PDTVRip, RUS] (Видеоурок)

Сообщение Stepan » 18 сен 2016, 23:43

Великобритания Джейми (6 серии из 6) / Jamie's Great Britain - Jamie Oliver

Страна: Великобритания
Тематика: Кулинарное шоу
Тип раздаваемого материала: Видеоурок
Продолжительность: 00:45:00
Год выпуска: 2011

Язык: Русский
Перевод: Профессиональный (одноголосый)
Язык субтитров: Русский

Описание: Джейми Оливер путешествует по своей стране, ищет новые и узнаёт историю происхождения старых рецептов и пытается выяснить что же делает британские блюда настолько интересными и вкусными.

Доп. информация:

Качество: PDTVRip
Формат: AVI, MKV
Видео кодек: XviD, AVC
Аудио кодек: MP3, AC3, MP2
Видео: MPEG-4, XviD, ~ 1531 Кбит/с, 720x400, 25 fps,(1-3 части)
Аудио: АС3, 2 ch, 192 Кбит/с, 48000 Гц
Видео 2: XviD, ~ 1468 Кбит/с, 624х352, 25 к/с (4 часть)
Аудио 2: MP3, 128 Кбит/с, 48000 Гц, 2 ch
Видео 3: AVC, ~ 1088-2125 Кбит/с, 720х576, 25 fps, (5-6 части)
Аудио 3: MP3, 128 Кбит/с, 48000 Гц, 2 ch
Полное имя : D:\trek\Jamies Great Britain\Jamies Great Britain s01e01 The East End and Essex.avi
Формат : AVI
Формат/Информация : Audio Video Interleave
Размер файла : 458 Мбайт
Продолжительность : 45 м.
Общий поток : 1401 Кбит/сек
Программа кодирования : Nandub v1.0rc2
Библиотека кодирования : VirtualDub build 30586/release

Видео
Идентификатор : 0
Формат : MPEG-4 Visual
Профиль формата : Advanced Simple@L5
Параметр BVOP формата : 2
Параметр QPel формата : Нет
Параметр GMC формата : Без точки перехода
Параметр матрицы формата : Default (H.263)
Режим смешивания : Сжатый битовый поток
Идентификатор кодека : XVID
Идентификатор кодека/Подсказка : XviD
Продолжительность : 45 м.
Битрейт : 1199 Кбит/сек
Ширина : 720 пикселей
Высота : 400 пикселей
Соотношение сторон : 16:9
Частота кадров : 25,000 кадров/сек
Цветовое пространство : YUV
Субдискретизация насыщенности : 4:2:0
Битовая глубина : 8 бит
Тип развёртки : Прогрессивная
Метод сжатия : С потерями
Бит/(Пиксели*Кадры) : 0.167
Размер потока : 392 Мбайт (86%)
Библиотека кодирования : XviD 1.2.1 (UTC 2008-12-04)

Аудио
Идентификатор : 1
Формат : AC-3
Формат/Информация : Audio Coding 3
Расширение режима : CM (complete main)
Параметр Endianness формата : Big
Идентификатор кодека : 2000
Продолжительность : 45 м.
Вид битрейта : Постоянный
Битрейт : 192 Кбит/сек
Каналы : 2 канала
Расположение каналов : Front: L R
Частота : 48,0 КГц
Битовая глубина : 16 бит
Метод сжатия : С потерями
Размер потока : 62,8 Мбайт (14%)
Выравнивание : Разделение по промежуткам
Продолжительность промежутка : 40 мс. (1,00 видеокадр)
Время предзагрузки промежутка : 500 мс.

Общее
Полное имя : D:\trek\Jamies Great Britain\Jamies Great Britain s01e02 Yorkshire.avi
Формат : AVI
Формат/Информация : Audio Video Interleave
Размер файла : 471 Мбайт
Продолжительность : 47 м.
Общий поток : 1400 Кбит/сек
Программа кодирования : Nandub v1.0rc2
Библиотека кодирования : VirtualDub build 30586/release

Видео
Идентификатор : 0
Формат : MPEG-4 Visual
Профиль формата : Advanced Simple@L5
Параметр BVOP формата : 2
Параметр QPel формата : Нет
Параметр GMC формата : Без точки перехода
Параметр матрицы формата : Default (H.263)
Режим смешивания : Сжатый битовый поток
Идентификатор кодека : XVID
Идентификатор кодека/Подсказка : XviD
Продолжительность : 47 м.
Битрейт : 1198 Кбит/сек
Ширина : 720 пикселей
Высота : 400 пикселей
Соотношение сторон : 16:9
Частота кадров : 25,000 кадров/сек
Цветовое пространство : YUV
Субдискретизация насыщенности : 4:2:0
Битовая глубина : 8 бит
Тип развёртки : Прогрессивная
Метод сжатия : С потерями
Бит/(Пиксели*Кадры) : 0.166
Размер потока : 403 Мбайт (86%)
Библиотека кодирования : XviD 1.2.1 (UTC 2008-12-04)

Аудио
Идентификатор : 1
Формат : AC-3
Формат/Информация : Audio Coding 3
Расширение режима : CM (complete main)
Параметр Endianness формата : Big
Идентификатор кодека : 2000
Продолжительность : 47 м.
Вид битрейта : Постоянный
Битрейт : 192 Кбит/сек
Каналы : 2 канала
Расположение каналов : Front: L R
Частота : 48,0 КГц
Битовая глубина : 16 бит
Метод сжатия : С потерями
Размер потока : 64,6 Мбайт (14%)
Выравнивание : Разделение по промежуткам
Продолжительность промежутка : 40 мс. (1,00 видеокадр)
Время предзагрузки промежутка : 500 мс.

Общее
Полное имя : D:\trek\Jamies Great Britain\Jamies Great Britain s01e03 South Wales.avi
Формат : AVI
Формат/Информация : Audio Video Interleave
Размер файла : 463 Мбайт
Продолжительность : 46 м.
Общий поток : 1400 Кбит/сек
Программа кодирования : Nandub v1.0rc2
Библиотека кодирования : Nandub build 1853/release

Видео
Идентификатор : 0
Формат : MPEG-4 Visual
Профиль формата : Advanced Simple@L5
Параметр BVOP формата : 2
Параметр QPel формата : Нет
Параметр GMC формата : Без точки перехода
Параметр матрицы формата : Default (H.263)
Режим смешивания : Сжатый битовый поток
Идентификатор кодека : XVID
Идентификатор кодека/Подсказка : XviD
Продолжительность : 46 м.
Битрейт : 1198 Кбит/сек
Ширина : 720 пикселей
Высота : 400 пикселей
Соотношение сторон : 16:9
Частота кадров : 25,000 кадров/сек
Цветовое пространство : YUV
Субдискретизация насыщенности : 4:2:0
Битовая глубина : 8 бит
Тип развёртки : Прогрессивная
Метод сжатия : С потерями
Бит/(Пиксели*Кадры) : 0.166
Размер потока : 397 Мбайт (86%)
Библиотека кодирования : XviD 1.2.1 (UTC 2008-12-04)

Аудио
Идентификатор : 1
Формат : AC-3
Формат/Информация : Audio Coding 3
Расширение режима : CM (complete main)
Параметр Endianness формата : Big
Идентификатор кодека : 2000
Продолжительность : 46 м.
Вид битрейта : Постоянный
Битрейт : 192 Кбит/сек
Каналы : 2 канала
Расположение каналов : Front: L R
Частота : 48,0 КГц
Битовая глубина : 16 бит
Метод сжатия : С потерями
Размер потока : 63,5 Мбайт (14%)
Выравнивание : Разделение по промежуткам
Продолжительность промежутка : 40 мс. (1,00 видеокадр)
Время предзагрузки промежутка : 500 мс.

Общее
Уникальный идентификатор : 234297301606837593854301488961654634612 (0xB04404D6FB89656DB59D7209EC583874)
Полное имя : D:\trek\Jamies Great Britain\Jamies Great Britain s01e04 The Heart of England.mkv
Формат : Matroska
Версия формата : Version 4 / Version 2
Размер файла : 588 Мбайт
Продолжительность : 46 м.
Общий поток : 1759 Кбит/сек
Дата кодирования : UTC 2013-01-30 01:18:19
Программа кодирования : mkvmerge v6.0.0 ('Coming Up For Air') built on Jan 20 2013 09:52:00
Библиотека кодирования : libebml v1.3.0 + libmatroska v1.4.0

Видео
Идентификатор : 1
Формат : MPEG-4 Visual
Профиль формата : Advanced Simple@L5
Параметр BVOP формата : Да
Параметр QPel формата : Нет
Параметр GMC формата : Без точки перехода
Параметр матрицы формата : Default (MPEG)
Идентификатор кодека : V_MS/VFW/FOURCC / XVID
Идентификатор кодека/Подсказка : XviD
Продолжительность : 46 м.
Битрейт : 1468 Кбит/сек
Ширина : 624 пикселя
Высота : 352 пикселя
Соотношение сторон : 16:9
Режим частоты кадров : Постоянный
Частота кадров : 25,000 кадров/сек
Цветовое пространство : YUV
Субдискретизация насыщенности : 4:2:0
Битовая глубина : 8 бит
Тип развёртки : Прогрессивная
Метод сжатия : С потерями
Бит/(Пиксели*Кадры) : 0.267
Размер потока : 491 Мбайт (83%)
Библиотека кодирования : XviD (For C4TV Use Only)
Default : Да
Forced : Нет

Аудио #1
Идентификатор : 2
Формат : MPEG Audio
Версия формата : Version 1
Профиль формата : Layer 3
Режим : Joint stereo
Расширение режима : MS Stereo
Идентификатор кодека : A_MPEG/L3
Идентификатор кодека/Подсказка : MP3
Продолжительность : 46 м.
Вид битрейта : Постоянный
Битрейт : 128 Кбит/сек
Каналы : 2 канала
Частота : 48,0 КГц
Метод сжатия : С потерями
Размер потока : 42,8 Мбайт (7%)
Библиотека кодирования : LAME3.99r
Настройки программы : -m j -V 4 -q 2 -lowpass 17 -b 128
Язык : Russian
Default : Да
Forced : Нет

Аудио #2
Идентификатор : 3
Формат : MPEG Audio
Версия формата : Version 1
Профиль формата : Layer 3
Режим : Joint stereo
Расширение режима : MS Stereo
Идентификатор кодека : A_MPEG/L3
Идентификатор кодека/Подсказка : MP3
Продолжительность : 46 м.
Вид битрейта : Постоянный
Битрейт : 128 Кбит/сек
Каналы : 2 канала
Частота : 48,0 КГц
Метод сжатия : С потерями
Размер потока : 42,8 Мбайт (7%)
Язык : English
Default : Нет
Forced : Нет

Текст
Идентификатор : 4
Формат : UTF-8
Идентификатор кодека : S_TEXT/UTF8
Идентификатор кодека/Информация : UTF-8 Plain Text
Язык : Russian
Default : Да
Forced : Нет

Общее
Уникальный идентификатор : 251389902999386396455243478420043604648 (0xBD1FEF2718A6A609BF2687F1BD6822A8)
Полное имя : D:\trek\Jamies Great Britain\Jamies Great Britain s01e05 The West Country.mkv
Формат : Matroska
Версия формата : Version 2
Размер файла : 795 Мбайт
Продолжительность : 47 м.
Общий поток : 2364 Кбит/сек
Дата кодирования : UTC 2012-10-05 22:02:47
Программа кодирования : mkvmerge v5.8.0 ('No Sleep / Pillow') built on Sep 2 2012 15:37:04
Библиотека кодирования : libebml v1.2.3 + libmatroska v1.3.0

Видео
Идентификатор : 2
Формат : AVC
Формат/Информация : Advanced Video Codec
Профиль формата : Main@L3.0
Параметр CABAC формата : Да
Параметр ReFrames формата : 4 кадра
Идентификатор кодека : V_MPEG4/ISO/AVC
Продолжительность : 47 м.
Битрейт : 2125 Кбит/сек
Ширина : 720 пикселей
Высота : 576 пикселей
Соотношение сторон : 16:9
Режим частоты кадров : Постоянный
Частота кадров : 25,000 кадров/сек
Стандарт вещания : Component
Цветовое пространство : YUV
Субдискретизация насыщенности : 4:2:0
Битовая глубина : 8 бит
Тип развёртки : Прогрессивная
Бит/(Пиксели*Кадры) : 0.205
Размер потока : 715 Мбайт (90%)
Default : Да
Forced : Нет
Основные цвета : BT.601 PAL
Характеристики трансфера : BT.470 System B, BT.470 System G
Коэффициенты матрицы : BT.601

Аудио
Идентификатор : 1
Формат : MPEG Audio
Версия формата : Version 1
Профиль формата : Layer 2
Идентификатор кодека : A_MPEG/L2
Идентификатор кодека/Подсказка : MP2
Продолжительность : 47 м.
Вид битрейта : Постоянный
Битрейт : 192 Кбит/сек
Каналы : 2 канала
Частота : 48,0 КГц
Метод сжатия : С потерями
Задержка видео : 11 мс.
Размер потока : 64,6 Мбайт (8%)
Язык : Russian
Default : Да
Forced : Нет

Общее
Уникальный идентификатор : 237825172753182815705233268826757739035 (0xB2EB7650FFAB63858C237CF6ABD5321B)
Полное имя : D:\trek\Jamies Great Britain\Jamies Great Britain s01e06 Scotland.mkv
Формат : Matroska
Версия формата : Version 2
Размер файла : 423 Мбайт
Продолжительность : 47 м.
Общий поток : 1240 Кбит/сек
Дата кодирования : UTC 2012-11-01 03:02:36
Программа кодирования : mkvmerge v5.8.0 ('No Sleep / Pillow') built on Sep 2 2012 15:37:04
Библиотека кодирования : libebml v1.2.3 + libmatroska v1.3.0

Видео
Идентификатор : 1
Формат : AVC
Формат/Информация : Advanced Video Codec
Профиль формата : High@L3.1
Параметр CABAC формата : Да
Параметр ReFrames формата : 4 кадра
Идентификатор кодека : V_MPEG4/ISO/AVC
Продолжительность : 47 м.
Битрейт : 1088 Кбит/сек
Ширина : 720 пикселей
Высота : 576 пикселей
Соотношение сторон : 16:9
Режим частоты кадров : Постоянный
Частота кадров : 25,000 кадров/сек
Стандарт вещания : PAL
Цветовое пространство : YUV
Субдискретизация насыщенности : 4:2:0
Битовая глубина : 8 бит
Тип развёртки : Прогрессивная
Бит/(Пиксели*Кадры) : 0.105
Размер потока : 371 Мбайт (88%)
Default : Да
Forced : Нет

Аудио
Идентификатор : 2
Формат : MPEG Audio
Версия формата : Version 1
Профиль формата : Layer 3
Режим : Joint stereo
Расширение режима : MS Stereo
Идентификатор кодека : A_MPEG/L3
Идентификатор кодека/Подсказка : MP3
Продолжительность : 47 м.
Вид битрейта : Постоянный
Битрейт : 128 Кбит/сек
Каналы : 2 канала
Частота : 48,0 КГц
Метод сжатия : С потерями
Задержка видео : 21 мс.
Размер потока : 43,6 Мбайт (10%)
Библиотека кодирования : LAME3.99
Default : Да
Forced : Нет

Общее
Полное имя : D:\trek\Jamies Great Britain\Jamies Great Britain.torrent
Размер файла : 16,7 Кбайт
У вас нет необходимых прав для просмотра вложений в этом сообщении.