Сообщение

В гостях у Джейми Оливера / Jamie At Home (с1: 1-13 из 13, с2: 1-13 из 13) [2006, Кулинарное шоу, HDTV, RUS/ENG]

Сообщение Stepan » 18 сен 2016, 23:44

В гостях у Джейми Оливера / Jamie At Home

Страна: Соединённое Королевство Великобритании и Северной Ирландии
Тематика: Кулинарное шоу
Тип раздаваемого материала: Видеоурок
Продолжительность: 00:25:58
Год выпуска: 2006

Язык: Русский + Английский
Перевод: Профессиональный (одноголосый)

Язык субтитров: нет
Описание: Приготовление еды никогда еще не выглядело столь интригующе интересным! Захватывающее кулинарное шоу знаменитого английского шеф-повара Джейми Оливера вряд ли сможет оставить кого-нибудь равнодушным. Оливер призывает зрителей отбросить страхи и почтительный трепет перед поварским искусством. Рецепты его блюд неординарны, свежи, привлекательны и практичны. Отбросьте правила и стереотипы, и вы узнаете много нового! Пусть русское название не собьет телезрителя с толку! Ведь речь идет о любимом миллионами персонаже - чудесном парне и всемирно известном английском поваре Джейми Оливере. Так что авторы сериала имели в виду его знаменитую открытость (а мы добавим: доброту и веселый нрав). У Джейми есть неоспоримое ноу-хау: он не просто демонстрирует свое искусство или дает кулинарные советы, - вы постоянно ощущаете во всем, что этот молодой человек делает и говорит, стремление помочь всем жить более радостно и достойно. Солнечное настроение не оставляет вас после каждой встречи с теперь уже "сэром Оливером"!

Доп. информация:
Чистая запись с канала FoxLife HD без перекодирования.
Код:
Код: Выделить всё
General
ID                                       : 1 (0x1)
Complete name                            : E:\Jamie\Jamie At Home HD\Jamie.At.Home.S01.E10.HDTV.ts
Format                                   : MPEG-TS
File size                                : 1.45 GiB
Duration                                 : 25mn 58s
Overall bit rate mode                    : Variable
Overall bit rate                         : 7 967 Kbps
Maximum Overall bit rate                 : 35.5 Mbps

Video
ID                                       : 4113 (0x1011)
Menu ID                                  : 1 (0x1)
Format                                   : AVC
Format/Info                              : Advanced Video Codec
Format profile                           : Main@L4.0
Format settings, CABAC                   : Yes
Format settings, ReFrames                : 4 frames
Codec ID                                 : 27
Duration                                 : 25mn 58s
Bit rate                                 : 7 250 Kbps
Width                                    : 1 920 pixels
Height                                   : 1 080 pixels
Display aspect ratio                     : 16:9
Frame rate                               : 25.000 fps
Standard                                 : Component
Color space                              : YUV
Chroma subsampling                       : 4:2:0
Bit depth                                : 8 bits
Scan type                                : MBAFF
Bits/(Pixel*Frame)                       : 0.140
Stream size                              : 1.32 GiB (91%)
Color primaries                          : BT.709
Transfer characteristics                 : BT.709
Matrix coefficients                      : BT.709

Audio #1
ID                                       : 4352 (0x1100)
Menu ID                                  : 1 (0x1)
Format                                   : MPEG Audio
Format version                           : Version 1
Format profile                           : Layer 2
Codec ID                                 : 4
Duration                                 : 25mn 58s
Bit rate mode                            : Constant
Bit rate                                 : 160 Kbps
Channel(s)                               : 2 channels
Sampling rate                            : 48.0 KHz
Compression mode                         : Lossy
Stream size                              : 29.7 MiB (2%)
Language                                 : Russian

Audio #2
ID                                       : 4353 (0x1101)
Menu ID                                  : 1 (0x1)
Format                                   : MPEG Audio
Format version                           : Version 1
Format profile                           : Layer 2
Codec ID                                 : 4
Duration                                 : 25mn 58s
Bit rate mode                            : Constant
Bit rate                                 : 160 Kbps
Channel(s)                               : 2 channels
Sampling rate                            : 48.0 KHz
Compression mode                         : Lossy
Stream size                              : 29.7 MiB (2%)
Language                                 : English

Нумерация серий как показывали на Канаде, именно её ,а не Великобританской, придерживается канал Фокслайв.

Качество: HDTV
Формат: TS
Видео кодек: H.264
Аудио кодек: MP2
Видео: MPEG4 Video (H264) 1920x1080 25fps [V: h264 main L4.0, yuv420p, 1920x1080]
Аудио: MP2 48000Hz stereo 160kbps [A: Russian [rus] (mp2, 48000 Hz, stereo, 160 kb/s)]
Аудио 2: MP2 48000Hz stereo 160kbps [A: English [eng] (mp2, 48000 Hz, stereo, 160 kb/s)]
1 СезонPotatoes
Peas & Broad Beans
Onions
Strawberries
Summer Brassicas
Carrots and Beets
Barbecue
Summer Salad
Beans
Tomatoes
Pickles & Preserves
Courgettes
[*]Pizza2 СезонAsparagus
Eggs
Feathered Game
Furred Game
Lamb
Leeks
Mushrooms
Pastry
Pepper & Chillies
Pumpkin & Squash
Rhubarb
Winter Salad
[*]Winter Veg




Постеры

Соцсети

 

Статистика

Автор: Stepan
Добавлен: 18 сен 2016, 23:44
Размер: 38.49 ГБ
Размер: 41 330 652 636 байт
Сидеров: 17
Личеров: 5
Скачали: 0
Здоровье: 100%
Раздающих: 100%
Статус:
Скорость скачивания: 0 байт/сек
Скорость раздачи: 0 байт/сек
Последний сидер: 1 год 1 день 14 часов 8 минут 33 секунды назад
Последний личер: 1 год 1 день 14 часов 8 минут 33 секунды назад
Приватный: Нет (DHT включён)
Кулинария Скачать торрент
Скачать торрент
[ Размер 194.46 КБ / Просмотров 0 ]

Поделиться



Вернуться в Кулинария